Ходячие мертвецы / The Walking Dead / Сезон: 9 / Серии: 1-8 из 16 (Грег Никотеро / Greg Nicotero) [2018 г., ужасы, триллер, драма, приключения, WEB-DL, 1080p] MVO (FOX) + Sub (Eng)]

Ответить на тему
 
Автор
Сообщение

Пост 10-Ноя-2018 15:52

[Q] 

tank69

Флибустьер

-Ходячие мертвецы / The Walking Dead-- Производство: США, AMC Studios
Жанр: ужасы, триллер, драма, приключения
Год выпуска: 2018 г.
Продолжительность: 00:55:00
Мировая премьера: 07 октября 2018
Перевод: Профессиональный (многоголосый, закадровый) [FOX]
Режиссёр: Грег Никотеро / Greg Nicotero, Эрнест Р. Дикерсон / Ernest R. Dickerson, Гай Ферленд / Guy Ferland, ...-В ролях: Эндрю Линкольн, Норман Ридус, Чендлер Риггз, Стивен Ян, Лорен Кохэн, Мелисса Сюзанн МакБрайд, Данай Джекесай Гурира, Эмили Кинни, Сара Уэйн Кэллис, Лори Холден, Скотт Уилсон, Чад Л. Коулмэн, Сонекуа Мартин-Грин, Аланна Мастерсон, Сет Гиллиам, Кристиан Серратос, Майкл Кудлиц, Джош МакДермитт, Джон Бернтал, Дэвид Моррисси, Айрон Синглтон, Джеффри ДеМанн, Росс Маркванд, Лоуренс Гиллиард мл, Ленни Джеймс, Остин Николс, Майкл Рукер, Ноа Эммерик, Деррик МакЛеод, Адам Минарович, Хосе Пабло Кантильо, Джейн МакНейлл, Джеймс Аллен МакКьюн, Лью Тэмпл, Мэдисон Линтц, Александра Брекенридж, Това Фелдшух, Тайлер Джеймс Уильямс, Даллас Робертс, Мерритт Уивер, Мелисса Понцио, Эмма Белл, Джерил Прескотт, Эндрю Ротенберг, Джефф Кобер, Том Пэйн, Прюитт Тэйлор Винс, Кирк Асеведо, Майкл Рэймонд-Джеймс, Элдис Ходж, Кайл Галлнер, Ксандер Беркли, Джон Кэрролл Линч, Джеффри Дин Морган-Описание: Сериал является экранизацией одноименной комикс-серии, которая начала выходить в 2003 году. После страшной болезни, превратившей жителей Земли в зомби, небольшая группа пока еще живых людей изо дня в день борется за выживание в новом, враждебном мире. Под предводительством бывшего полицейского Рика они ищут безопасное для жизни место, но зомби — это не самое страшное, что их ждет, основная опасность — это жестокое внутреннее соперничество среди выживших.-
Качество видео: WEB-DL
Контейнер: MKV
Стандарт разрешения: 1080p
Видео кодек: MPEG4 AVC
Аудио кодек: AC3
Видео: AVC, 1916x1076, 25.000 fps, 5315 Kbps
Аудио: Rus: AC-3, 48.0 KHz, 2 ch, 192 Kbps
Аудио: Eng: AC-3, 48.0 KHz, 6 ch, 384 Kbps
Cубтитры: английские
Доп. информация о субтитрах: UTF-8
Общее
Уникальный идентификатор : 189967601955658191363183110722779289021 (0x8EEA6DE70FFF14AFA3B53C1E6FFF15BD)
Полное имя : C:\Users\vigor\Downloads\TWD (Season 09) FOX 1080\The.Walking.Dead.S09E01.1080p.WEB-DL.FOX.mkv
Формат : Matroska
Версия формата : Version 2
Размер файла : 2,36 Гбайт
Продолжительность : 56 м. 9 с.
Общий поток : 6011 Кбит/сек
Дата кодирования : UTC 2018-10-21 00:30:46
Программа кодирования : mkvmerge v7.8.0 ('River Man') 32bit built on Apr 3 2015 12:11:22
Библиотека кодирования : libebml v1.3.1 + libmatroska v1.4.2
Видео
Идентификатор : 1
Формат : AVC
Формат/Информация : Advanced Video Codec
Профиль формата : [email protected]
Настройки формата : CABAC / 4 Ref Frames
Параметр CABAC формата : Да
Параметр RefFrames формата : 4 кадра
Идентификатор кодека : V_MPEG4/ISO/AVC
Продолжительность : 56 м. 9 с.
Битрейт : 5315 Кбит/сек
Ширина : 1916 пикселей
Высота : 1076 пикселей
Соотношение сторон : 16:9
Режим частоты кадров : Постоянный
Частота кадров : 25,000 кадров/сек
Цветовое пространство : YUV
Субдискретизация насыщенности : 4:2:0
Битовая глубина : 8 бит
Тип развёртки : Прогрессивная
Бит/(Пиксели*Кадры) : 0.103
Размер потока : 2,08 Гбайт (88%)
Язык : English
Default : Да
Forced : Нет
Цветовой диапазон : Limited
Основные цвета : BT.709
Характеристики трансфера : BT.709
Коэффициенты матрицы : BT.709
Аудио #1
Идентификатор : 2
Формат : AC-3
Формат/Информация : Audio Coding 3
Идентификатор кодека : A_AC3
Продолжительность : 56 м. 9 с.
Вид битрейта : Постоянный
Битрейт : 192 Кбит/сек
Каналы : 2 канала
Расположение каналов : Front: L R
Частота : 48,0 КГц
Частота кадров : 31,250 кадров/сек (1536 SPF)
Битовая глубина : 16 бит
Метод сжатия : С потерями
Размер потока : 77,1 Мбайт (3%)
Заголовок : FOX
Язык : Russian
ServiceKind/String : Complete Main
Default : Да
Forced : Нет
Аудио #2
Идентификатор : 3
Формат : AC-3
Формат/Информация : Audio Coding 3
Идентификатор кодека : A_AC3
Продолжительность : 56 м. 9 с.
Вид битрейта : Постоянный
Битрейт : 384 Кбит/сек
Каналы : 6 каналов
Расположение каналов : Front: L C R, Side: L R, LFE
Частота : 48,0 КГц
Частота кадров : 31,250 кадров/сек (1536 SPF)
Битовая глубина : 16 бит
Метод сжатия : С потерями
Размер потока : 154 Мбайт (6%)
Язык : English
ServiceKind/String : Complete Main
Default : Нет
Forced : Нет
Текст
Идентификатор : 4
Формат : UTF-8
Идентификатор кодека : S_TEXT/UTF8
Идентификатор кодека/Информация : UTF-8 Plain Text
Язык : English
Default : Нет
Forced : Нет
БЕЗ РЕКЛАМЫ
Download / Скачать

Хотите скачать бесплатно? Зарегистрируйтесь на сайте (ссылка на регистрацию). Pirat.ca - самый быстрый торрент трекер в рунете!

Как скачивать  ·   Что такое торрент  ·   Рейтинг и ограничения



Последний раз редактировалось: tank69 (2018-11-26 23:48), всего редактировалось 4 раз(а)

tank69 ®

Флибустьер

1663

Пост 10-Ноя-2018 16:04 (спустя 11 минут)

[Q] 

Приятного просмотра!
[Профиль]  [ЛС] 

redfield

Корсар

Пост 10-Ноя-2018 23:03 (спустя 6 часов)

[Q] 

блин, а я еще 8 сезон не досмотрел, уныло как то стало, а тут сразу 5 серий 9го уже...
[Профиль]  [ЛС] 

datt

Пост 11-Ноя-2018 01:55 (спустя 2 часа 52 минуты)

[Q] 

831698блин, а я еще 8 сезон не досмотрел, уныло как то стало, а тут сразу 5 серий 9го уже...
не ты один... притомила эта бодяга с Ниганом....но те кто посмотрел 9й сезон, требуют вернуть Нигана взад....

_________________
Ненависть нужно заслужить
[Профиль]  [ЛС] 

tank69 ®

Флибустьер

1663

Пост 14-Ноя-2018 17:03 (спустя 3 дня)

[Q] 

14.11.18 - добавлена 6 серия.
[Профиль]  [ЛС] 

Сумрак

1729

Пост 19-Ноя-2018 00:01 (спустя 4 дня)

[Q] 

концовка последней серии прикольная -- они здесь найдите их не дайте уйти )) гы мертвяки заговорили .. даже заинтриговало жду с нетерпением продолжения .. жаль мне не залить сюда не дает .. а так много новинок есть ге я смотрю но увы пробовал сюда передать походу хостер блочит передачу
В новом сезоне появятся Шептуны, которые будут сражаться с выжившими. Эти существа ходят в коже зомби и могут управлять ими. Они представляют собой говорящих шепотом дикарей, на которых мертвецы не обращают внимания. это к концовке 6 серии уже появились ))

_________________
админы помнят мою договреность - я вам народ сюда вы ко мне - моих тут больше ста ребят я привел со своего проекта просьба помочь и моему проекту, продолжу дальше сюда народ приводить
http://planet-of-free-people.com игра стратегия баги еще есть полная идет переделка 2moons под интерактивность
[Профиль]  [ЛС] 

tank69 ®

Флибустьер

1663

Пост 19-Ноя-2018 11:54 (спустя 11 часов)

[Q] 

Сумрак,
Походу зомби эволюционируют)))
Интригует...дикари в коже зомби)
[Профиль]  [ЛС] 

tank69 ®

Флибустьер

1663

Пост 20-Ноя-2018 01:26 (спустя 13 часов)

[Q] 

26.11.18 - добавлена 8 серия.
В конце этой серии..герои сериала действительно столкнулись с дикарями..которые управляют ходячими...
[Профиль]  [ЛС] 
Показать сообщения:    
Ответить на тему

Текущее время: Сегодня 04:35

Часовой пояс: GMT + 4



Вы не можете начинать темы
Вы не можете отвечать на сообщения
Вы не можете редактировать свои сообщения
Вы не можете удалять свои сообщения
Вы не можете голосовать в опросах
Вы не можете прикреплять файлы к сообщениям
Вы не можете скачивать файлы

Майнать ▼