Лассо / Lasso (Ивэн Сесил / Evan Cecil) [2018 г., ужасы, триллер, WEB-DL, 720p] MVO (Синема УС)

Ответить на тему
 
Автор
Сообщение

Пост 17-Ноя-2018 12:00

[Q] 

tank69

Флибустьер

-Лассо / Lasso-- Производство: США
Год выпуска: 2018 г.
Жанр: ужасы, триллер
Продолжительность: 01:37:00
Мировая премьера: 13 ноября 2018
Перевод: Профессиональный (многоголосый, закадровый) [Синема УС]
Режиссёр: Ивэн Сесил / Evan Cecil-В ролях: Шон Патрик Флэнери, Линдси Морган, Эндрю Джейкобс, Карен Грассл, Томас Кокениас, Heather Mignon, Бенедита Перейра, Трэвис Росс, Морган Бенуа, Тим Лайчик-Описание: Туристическая группа пожилых людей приезжает на родео в американскую глубинку и подвергается нападению местных ковбоев, ополоумевших от употребления ветеринарных стероидов.-
Качество видео: WEB-DL
Контейнер: MKV
Стандарт разрешения: 720p
Видео кодек: MPEG4 AVC
Аудио кодек: AC3
Видео: AVC, 1280x532, 23.976 fps, 4965 Kbps
Аудио: Rus: AC-3, 48.0 KHz, 2 ch, 384 Kbps
Cубтитры: отсутствуют
Общее
Уникальный идентификатор : 222968394016688527987386224527303792204 (0xA7BE26923C213F4F806260CAA368564C)
Полное имя : C:\Users\vigor\Downloads\Lasso.2018.P.WEB-DL.72Op_KOSHARA.mkv
Формат : Matroska
Версия формата : Version 2
Размер файла : 3,73 Гбайт
Продолжительность : 1 ч. 39 м.
Режим общего битрейта : Переменный
Общий поток : 5351 Кбит/сек
Дата кодирования : UTC 2018-11-15 15:37:34
Программа кодирования : mkvmerge v8.3.0 ('Over the Horizon') 64bit
Библиотека кодирования : libebml v1.3.1 + libmatroska v1.4.2
Видео
Идентификатор : 1
Формат : AVC
Формат/Информация : Advanced Video Codec
Профиль формата : [email protected]
Настройки формата : CABAC / 4 Ref Frames
Параметр CABAC формата : Да
Параметр RefFrames формата : 4 кадра
Идентификатор кодека : V_MPEG4/ISO/AVC
Продолжительность : 1 ч. 39 м.
Вид битрейта : Переменный
Битрейт : 4965 Кбит/сек
Максимальный битрейт : 5500 Кбит/сек
Ширина : 1280 пикселей
Высота : 532 пикселя
Соотношение сторон : 2,40:1
Режим частоты кадров : Постоянный
Частота кадров : 23,976 (24000/1001) кадра/сек
Стандарт вещания : Component
Цветовое пространство : YUV
Субдискретизация насыщенности : 4:2:0
Битовая глубина : 8 бит
Тип развёртки : Прогрессивная
Бит/(Пиксели*Кадры) : 0.304
Размер потока : 3,46 Гбайт (93%)
Default : Да
Forced : Нет
Цветовой диапазон : Limited
Основные цвета : BT.709
Характеристики трансфера : BT.709
Коэффициенты матрицы : BT.709
Аудио
Идентификатор : 2
Формат : AC-3
Формат/Информация : Audio Coding 3
Идентификатор кодека : A_AC3
Продолжительность : 1 ч. 39 м.
Вид битрейта : Постоянный
Битрейт : 384 Кбит/сек
Каналы : 2 канала
Расположение каналов : Front: L R
Частота : 48,0 КГц
Частота кадров : 31,250 кадров/сек (1536 SPF)
Битовая глубина : 16 бит
Метод сжатия : С потерями
Размер потока : 274 Мбайт (7%)
ServiceKind/String : Complete Main
Default : Да
Forced : Нет
ПРИСУТСТВУЕТ РЕКЛАМА
Download / Скачать

Хотите скачать бесплатно? Зарегистрируйтесь на сайте (ссылка на регистрацию). Pirat.ca - самый быстрый торрент трекер в рунете!

Как скачивать  ·   Что такое торрент  ·   Рейтинг и ограничения

tank69 ®

Флибустьер

1663

Пост 17-Ноя-2018 12:06 (спустя 6 минут)

[Q] 

Добротно снятый хорор, хотя временами напоминает черную комедию (живучий однорукий персонаж)...но...в общем и целом - вполне норм кино, правда на один раз.
Приятного просмотра.
[Профиль]  [ЛС] 

koljan-2008

Гроза морей

10

Пост 17-Ноя-2018 12:53 (спустя 46 минут)

[Q] 

Скачаю, гляну. По описанию вроде бы неплохой фильм. Лови бочку

_________________
Нужно лишь верить в мечту. Искренне верить! И тогда всё получится!
[Профиль]  [ЛС] 

Victorsalata

Флибустьер

Пост 17-Ноя-2018 12:58 (спустя 5 минут)

[Q] 

Интересно. Посмотрю и отпишусь.
[Профиль]  [ЛС] 

BearArtyom

Штурман

Пост 18-Ноя-2018 19:13 (спустя 1 день 6 часов)

[Q] 

Судя по описанию, это должен быть хороший порно фильм для истинных ценителей хороших извращений. А написано, ужасы. Какое то несоответствие. Попрошу исправить или описание или жанр. )))
[Профиль]  [ЛС] 

Victorsalata

Флибустьер

Пост 20-Ноя-2018 14:24 (спустя 1 день 19 часов)

[Q] 

Не досмотрел до конца. Мне тяжело ВСЕ это представить и понять. Наверное менталитет другой.
[Профиль]  [ЛС] 
Показать сообщения:    
Ответить на тему

Текущее время: Сегодня 04:55

Часовой пояс: GMT + 4



Вы не можете начинать темы
Вы не можете отвечать на сообщения
Вы не можете редактировать свои сообщения
Вы не можете удалять свои сообщения
Вы не можете голосовать в опросах
Вы не можете прикреплять файлы к сообщениям
Вы не можете скачивать файлы

Майнать ▼