Попробуй подкати / Tout le monde debout (Франк Дюбоск / Franck Dubosc) [2018 г., Мелодрама, комедия, WEB-DL, 1080p] Dub

Ответить на тему
 
Автор
Сообщение

Пост 03-Авг-2018 15:10

[Q] 

AlexDjas

Гроза морей

--Попробуй подкати / Tout le monde debout-- Производство: Франция, Бельгия
Год выпуска: 2018 г.
Жанр: Мелодрама, комедия
Продолжительность: 01:47:52
Мировая премьера: 23 февраля 2018
Российская премьера: 5 июля 2018, «MEGOGO Distribution»
Перевод: Профессиональный (полное дублирование) [iTunes]
Режиссёр: Франк Дюбоск / Franck Dubosc--В ролях: Франк Дюбоск, Александра Лами, Эльза Зильберштейн, Жерар Дармон, Каролин Англад, Лоран Бато, Клод Брассёр, Франсуа-Ксавье Демезон, Летиция Белличчини, Кристоф Канар--Описание: Успешный бизнесмен и эгоистичный мачо пускает в ход все свои уловки, чтобы соблазнять девушек. Но однажды он сам оказывается в крайне щекотливой ситуации.-- Качество видео: WEB-DL
Контейнер: MKV
Стандарт разрешения: 1080p
Видео кодек: MPEG4 AVC
Аудио кодек: AC3
Видео: H.264/AVC, 1908x792, ~4549 kbps, 23.976 fps
Аудио: 48 kHz, AC3 Dolby Digital, 3/2 (L,C,R,l,r) + LFE ch, ~384 kbps
Cубтитры: отсутствуют
Общее
Уникальный идентификатор : 235870568506862633503442032559864774763 (0xB17304E2FF4182EE99C1DB777B01806B)
Полное имя : D:\торрент\Tout_le_monde_debout_2018_WEB-DL_1080p[pirat.ca].mkv
Формат : Matroska
Версия формата : Version 4 / Version 2
Размер файла : 3,72 Гбайт
Продолжительность : 1 ч. 47 м.
Общий поток : 4935 Кбит/сек
Название фильма : Tout le monde debout
Дата кодирования : UTC 2018-08-03 10:16:14
Программа кодирования : mkvmerge v25.0.0 ('Prog Noir') 64-bit
Библиотека кодирования : libebml v1.3.6 + libmatroska v1.4.9
Видео
Идентификатор : 1
Формат : AVC
Формат/Информация : Advanced Video Codec
Профиль формата : [email protected]
Настройки формата : CABAC / 5 Ref Frames
Параметр CABAC формата : Да
Параметр RefFrames формата : 5 кадров
Идентификатор кодека : V_MPEG4/ISO/AVC
Продолжительность : 1 ч. 47 м.
Битрейт : 4549 Кбит/сек
Ширина : 1908 пикселей
Высота : 792 пикселя
Соотношение сторон : 2,40:1
Режим частоты кадров : Постоянный
Частота кадров : 23,976 (24000/1001) кадра/сек
Цветовое пространство : YUV
Субдискретизация насыщенности : 4:2:0
Битовая глубина : 8 бит
Тип развёртки : Прогрессивная
Бит/(Пиксели*Кадры) : 0.126
Размер потока : 3,43 Гбайт (92%)
Заголовок : Tout le monde debout
Язык : English
Default : Да
Forced : Нет
Цветовой диапазон : Limited
Основные цвета : BT.709
Характеристики трансфера : BT.709
Коэффициенты матрицы : BT.709
Аудио
Идентификатор : 2
Формат : AC-3
Формат/Информация : Audio Coding 3
Идентификатор кодека : A_AC3
Продолжительность : 1 ч. 47 м.
Вид битрейта : Постоянный
Битрейт : 384 Кбит/сек
Каналы : 6 каналов
Расположение каналов : Front: L C R, Side: L R, LFE
Частота : 48,0 КГц
Частота кадров : 31,250 кадров/сек (1536 SPF)
Битовая глубина : 16 бит
Метод сжатия : С потерями
Размер потока : 296 Мбайт (8%)
Заголовок : iTunes
Язык : Russian
ServiceKind/String : Complete Main
Default : Да
Forced : Нет
Меню
00:00:00.000 : en:1
00:10:08.000 : en:2
00:20:12.000 : en:3
00:32:57.000 : en:4
00:42:12.000 : en:5
00:49:04.000 : en:6
00:59:11.000 : en:7
01:04:55.000 : en:8
01:13:31.000 : en:9
01:23:05.000 : en:10
01:36:27.000 : en:11
01:41:46.000 : en:12
Download / Скачать

Хотите скачать бесплатно? Зарегистрируйтесь на сайте (ссылка на регистрацию). Pirat.ca - самый быстрый торрент трекер в рунете!

Как скачивать  ·   Что такое торрент  ·   Рейтинг и ограничения

lmld

Шкипер

Пост 21-Ноя-2018 06:27 (спустя 3 месяца 17 дней)

[Q] 

Спасибо!!! Лови бочку
[Профиль]  [ЛС] 
Показать сообщения:    
Ответить на тему

Текущее время: Сегодня 09:47

Часовой пояс: GMT + 4



Вы не можете начинать темы
Вы не можете отвечать на сообщения
Вы не можете редактировать свои сообщения
Вы не можете удалять свои сообщения
Вы не можете голосовать в опросах
Вы не можете прикреплять файлы к сообщениям
Вы не можете скачивать файлы

Майнать ▼