Афганистан. Спрятанная война / (Михаил Лещинский) [2014 г., документальный, SATRip]

Ответить на тему
 
Автор
Сообщение

Пост 08-Июн-2014 03:04

[Q] 

okorm

Легенда

-Афганистан. Спрятанная война-- Производство: Россия
Жанр: документальный
Год выпуска: 2014 г.
Продолжительность: 00:48:09
Перевод: Не требуется
Оригинальный аудиопоток: русский
Режиссер: Михаил Лещинский-Описание: По-разному начиналась эта война, длившаяся без малого десять лет. Почти для всех ее ход, причины и предпосылки на протяжении долгого времени были окутаны строжайшей тайной. Несколько десятилетий ее документы хранились в особых архивах, многое недоступно и сейчас. Создатели документального фильма «Афганистан. Спрятанная война» сделали попытку по крупицам восстановить историю кровопролитных боевых действий. Как на самом деле складывались события в то время? Где и при каких обстоятельствах формировалось сообщество тех, кто сейчас носит имя ветеранов боевых действий в Афганистане? Именно они, непосредственные участники тех событий, и стали главными героями фильма. Их уникальные свидетельства, а также многочисленные кадры военной хроники позволят взглянуть на минувшие события совершенно по-иному – с точки зрения тех, кто оказался на передовой, кому памятен каждый день войны, кто самой дорогой ценой приобретал новый опыт боевых действий в горах и пустынях, в условиях агрессивной партизанской борьбы…-Качество видео: SATRip
Контейнер: AVI
Видео кодек: XviD
Аудио кодек: MP3
Видео: XviD, 720х464, 25.00 fps, 1800 kbps
Аудио: MP3, 128 кб/с, 48 kHz, 2 ch
Cубтитры: отсутствуют
Format : AVI
Format/Info : Audio Video Interleave
File size : 666 MiB
Duration : 48mn 9s
Overall bit rate : 1 934 Kbps
Writing library : TMPGEnc 4.0 XPress Version. 4.7.7.307
Video #0
ID : 0
Format : MPEG-4 Visual
Format profile : Advanced [email protected]
Format settings, BVOP : 2
Format settings, QPel : No
Format settings, GMC : No warppoints
Format settings, Matrix : Default (MPEG)
Codec ID : XVID
Codec ID/Hint : XviD
Duration : 48mn 9s
Bit rate : 1 798 Kbps
Width : 720 pixels
Height : 464 pixels
Display aspect ratio : 16:10
Frame rate : 25.000 fps
Color space : YUV
Chroma subsampling : 4:2:0
Bit depth : 8 bits
Scan type : Progressive
Compression mode : Lossy
Bits/(Pixel*Frame) : 0.215
Stream size : 619 MiB (93%)
Writing library : XviD 64
Audio #1
ID : 1
Format : MPEG Audio
Format version : Version 1
Format profile : Layer 3
Mode : Joint stereo
Mode extension : MS Stereo
Codec ID : 55
Codec ID/Hint : MP3
Duration : 48mn 9s
Bit rate mode : Constant
Bit rate : 128 Kbps
Channel count : 2 channels
Sampling rate : 48.0 KHz
Compression mode : Lossy
Stream size : 44.1 MiB (7%)
Alignment : Aligned on interleaves
Interleave, duration : 250 ms (6.25 video frames)
Interleave, preload duration : 192 ms
Download / Скачать

Хотите скачать бесплатно? Зарегистрируйтесь на сайте (ссылка на регистрацию). Pirat.ca - самый быстрый торрент трекер в рунете!

Как скачивать  ·   Что такое торрент  ·   Рейтинг и ограничения

TUS7884

Флибустьер

Пост 20-Окт-2014 20:15 (спустя 4 месяца 12 дней)

[Q] 

начните раздачу)))) Лови бочку
[Профиль]  [ЛС] 

lmld

Шкипер

Пост 21-Ноя-2018 06:51 (спустя 4 года 1 месяц)

[Q] 

Спасибо!!! Лови бочку
[Профиль]  [ЛС] 
Показать сообщения:    
Ответить на тему

Текущее время: Сегодня 22:53

Часовой пояс: GMT + 4



Вы не можете начинать темы
Вы не можете отвечать на сообщения
Вы не можете редактировать свои сообщения
Вы не можете удалять свои сообщения
Вы не можете голосовать в опросах
Вы не можете прикреплять файлы к сообщениям
Вы не можете скачивать файлы

Майнать ▼