Прощаться не будем (Павел Дроздов) [2018 г., Военный, драма, история, WEB-DLRip]

Ответить на тему
 
Автор
Сообщение

Пост 21-Июл-2018 16:43

[Q] 

cergo

Гроза морей

-Прощаться не будем«У каждого есть выбор...»--
Производство: Россия
Режиссёр: Павел Дроздов
Жанр: Военный, драма, история
Год выпуска: 2018 г.
Продолжительность: 01:54:21
Российская премьера: 21 июня 2018, «RFG Distribution»-В ролях: Андрей Мерзликин, Алена Чехова, Артур Ваха, Анатолий Гущин, Егор Бероев, Юрий Кузнецов, Дагун Омаев, Сергей Горобченко, Родион Долгирев, Анна Чурина-Описание: Октябрь сорок первого года. Многотысячное немецкое войско наступает на Калинин (ныне Тверь), чтобы, захватив его, открыть себе прямой путь на Москву. На защите города всего две тысячи человек без танков и артиллерии. Единственная надежда задержать врага — эшелоны пятой стрелковой дивизии, которые вот-вот должны пройти через Калининскую станцию. Но диверсанты намерены сделать все, чтобы этого не случилось. Начальник Калининского гарнизона, майор Павел Сысоев, изо всех сил пытаясь сохранить в городе порядок и спокойствие, сам попадает под подозрение в причастности к вражеской диверсионной группе.-
Качество видео: WEB-DLRip
Контейнер: AVI
Видео кодек: XviD
Аудио кодек: AC3
Видео: 720x304 (2.37:1), 24.005 fps, XviD build 67 ~1420 kbps avg, 0.27 bit/pixel
Аудио: 48 kHz, AC3 Dolby Digital, 3/2 (L,C,R,l,r) + LFE ch, ~384 kbps
Cубтитры: отсутствуют
Общее
Полное имя : D:\Архив\Фильмы\Прощаться не будем.2018.avi
Формат : AVI
Формат/Информация : Audio Video Interleave
Профиль формата : OpenDML
Размер файла : 1,46 Гбайт
Продолжительность : 1 ч. 54 м.
Общий поток : 1816 Кбит/сек
Программа кодирования : XviD4PSP 6.0 / 54.27.101
Видео
Идентификатор : 0
Формат : MPEG-4 Visual
Профиль формата : Advanced [email protected]
Настройки формата : BVOP2 / Custom Matrix
Параметр BVOP формата : 2
Параметр QPel формата : Нет
Параметр GMC формата : Без точки перехода
Параметр матрицы формата : Выборочная
Идентификатор кодека : XVID
Идентификатор кодека/Подсказка : XviD
Продолжительность : 1 ч. 54 м.
Битрейт : 1420 Кбит/сек
Ширина : 720 пикселей
Высота : 304 пикселя
Соотношение сторон : 2,35:1
Частота кадров : 24,000 кадра/сек
Цветовое пространство : YUV
Субдискретизация насыщенности : 4:2:0
Битовая глубина : 8 бит
Тип развёртки : Прогрессивная
Метод сжатия : С потерями
Бит/(Пиксели*Кадры) : 0.270
Размер потока : 1,14 Гбайт (78%)
Библиотека кодирования : XviD 67
Аудио
Идентификатор : 1
Формат : AC-3
Формат/Информация : Audio Coding 3
Идентификатор кодека : 2000
Продолжительность : 1 ч. 54 м.
Вид битрейта : Постоянный
Битрейт : 384 Кбит/сек
Каналы : 6 каналов
Расположение каналов : Front: L C R, Side: L R, LFE
Частота : 48,0 КГц
Частота кадров : 31,250 кадров/сек (1536 SPF)
Битовая глубина : 16 бит
Метод сжатия : С потерями
Размер потока : 317 Мбайт (21%)
Выравнивание : Соединение по промежуткам
Продолжительность промежутка : 32 мс. (0,77 видеокадр)
ServiceKind/String : Complete Main
Download / Скачать

Хотите скачать бесплатно? Зарегистрируйтесь на сайте (ссылка на регистрацию). Pirat.ca - самый быстрый торрент трекер в рунете!

Как скачивать  ·   Что такое торрент  ·   Рейтинг и ограничения

sleandr

Морской Волк

Пост 23-Июл-2018 22:14 (спустя 2 дня 5 часов)

[Q] 

Фильм интересный. Мне понравилось
[Профиль]  [ЛС] 

vasdas

Корсар

Пост 24-Июл-2018 03:23 (спустя 5 часов)

[Q] 

посмотрим Лови бочку
[Профиль]  [ЛС] 

kinstintin

Легенда

Пост 24-Июл-2018 20:52 (спустя 17 часов)

[Q] 

благодарю за труды!
Спасибо!!!
[Профиль]  [ЛС] 

cergo ®

Гроза морей

20685

Пост 25-Июл-2018 00:03 (спустя 3 часа)

[Q] 

sleandr, vasdas, kinstintin
az
[Профиль]  [ЛС] 

maksprs

Штурман

Пост 27-Июл-2018 20:40 (спустя 2 дня 20 часов)

[Q] 

косяк со звуком
[Профиль]  [ЛС] 

italiano711

Гроза морей

42

Пост 21-Ноя-2018 23:44 (спустя 3 месяца 25 дней)

[Q] 

Что-то отзывов не видно.
[Профиль]  [ЛС] 

Степаныч

876

Пост 09-Дек-2018 16:17 (спустя 17 дней)

[Q] 

посмотрим Раздающему респект!

_________________
орфография как кунг-фу, истинный мастер не использует без надобности
[Профиль]  [ЛС] 
Показать сообщения:    
Ответить на тему

Текущее время: Сегодня 22:10

Часовой пояс: GMT + 4



Вы не можете начинать темы
Вы не можете отвечать на сообщения
Вы не можете редактировать свои сообщения
Вы не можете удалять свои сообщения
Вы не можете голосовать в опросах
Вы не можете прикреплять файлы к сообщениям
Вы не можете скачивать файлы

Майнать ▼