Игра Джералда / Gerald's Game (Майк Флэнаган / Mike Flanagan) [2017 г., ужасы, триллер, драма, WEBRip, 1080p] MVO (Jaskier) + Original (Eng) +Subs (Eng, Rus, Span, Frn, Ital) )

Ответить на тему
 
Автор
Сообщение

Пост 07-Ноя-2018 20:57

[Q] 

tank69

Флибустьер

-Игра Джералда / Gerald's Game-- Производство: США, Netflix
Год выпуска: 2017 г.
Жанр: ужасы, триллер, драма
Продолжительность: 01:43:25
Мировая премьера: 29 сентября 2017
Перевод: Профессиональный (многоголосый, закадровый) [Jaskier]
Режиссёр: Майк Флэнаган / Mike Flanagan-В ролях: Карла Гуджино, Брюс Гринвуд, Кьяра Аурелия , Карел Стрёйкен, Генри Томас, Кейт Сигел, Adalyn Jones, Bryce Harper, Гвендолин Муламба, Джеймс Флэнеган, Дори Лампкин, Натали Роерс.-Описание: После того, как ее муж падает с сердечным приступом в разгаре интимной игры, молодая женщина остается прикованной к кровати. Но ее одиночество будет недолгим. Все страхи, которые она когда-либо испытывала в жизни, вернутся в одночасье в уединенный дом, мгновенно превратившийся в зловещую камеру пыток.-
Качество видео: WEBRip
Контейнер: MKV
Стандарт разрешения: 1080p
Видео кодек: MPEG4 AVC
Аудио кодек: AC3
Видео: AVC, 1920x804, 23.976 fps, 6099 Kbps
Аудио: Rus: AC-3, 48.0 KHz, 6 ch, 384 Kbps
Аудио: Eng: AC-3, 48.0 KHz, 6 ch, 384 Kbps
Cубтитры: английские, русские, испанские, французские, итальянские
Доп. информация о субтитрах: UTF-8
бщее
Уникальный идентификатор : 319687034573594005472232002181695314075 (0xF0817BB7B2C66D07F7A622709E90989B)
Полное имя : C:\Users\vigor\Downloads\Игра Джеральда. 2017. MVO (WEB-DL 1080p).mkv
Формат : Matroska
Версия формата : Version 4 / Version 2
Размер файла : 4,96 Гбайт
Продолжительность : 1 ч. 43 м.
Общий поток : 6869 Кбит/сек
Название фильма : Gerald's Game
Дата кодирования : UTC 2018-11-06 17:20:27
Программа кодирования : mkvmerge v25.0.0 ('Prog Noir') 64-bit
Библиотека кодирования : libebml v1.3.6 + libmatroska v1.4.9
Видео
Идентификатор : 1
Формат : AVC
Формат/Информация : Advanced Video Codec
Профиль формата : [email protected]
Настройки формата : CABAC / 5 Ref Frames
Параметр CABAC формата : Да
Параметр RefFrames формата : 5 кадров
Идентификатор кодека : V_MPEG4/ISO/AVC
Продолжительность : 1 ч. 43 м.
Битрейт : 6099 Кбит/сек
Ширина : 1920 пикселей
Высота : 804 пикселя
Соотношение сторон : 2,40:1
Режим частоты кадров : Постоянный
Частота кадров : 23,976 (24000/1001) кадра/сек
Цветовое пространство : YUV
Субдискретизация насыщенности : 4:2:0
Битовая глубина : 8 бит
Тип развёртки : Прогрессивная
Бит/(Пиксели*Кадры) : 0.165
Размер потока : 4,41 Гбайт (89%)
Библиотека кодирования : x264 core 144 r2525 40bb568
Настройки программы : cabac=1 / ref=5 / deblock=1:-3:-3 / analyse=0x3:0x133 / me=umh / subme=10 / psy=1 / psy_rd=1.00:0.00 / mixed_ref=1 / me_range=48 / chroma_me=1 / trellis=2 / 8x8dct=1 / cqm=0 / deadzone=21,11 / fast_pskip=0 / chroma_qp_offset=-2 / threads=24 / lookahead_threads=4 / sliced_threads=0 / nr=0 / decimate=0 / interlaced=0 / bluray_compat=0 / constrained_intra=0 / bframes=8 / b_pyramid=2 / b_adapt=2 / b_bias=0 / direct=3 / weightb=1 / open_gop=0 / weightp=2 / keyint=250 / keyint_min=23 / scenecut=40 / intra_refresh=0 / rc=crf / mbtree=0 / crf=18.0 / qcomp=0.60 / qpmin=0 / qpmax=69 / qpstep=4 / ip_ratio=1.30 / pb_ratio=1.20 / aq=3:0.80
Язык : English
Default : Да
Forced : Нет
Аудио #1
Идентификатор : 2
Формат : AC-3
Формат/Информация : Audio Coding 3
Идентификатор кодека : A_AC3
Продолжительность : 1 ч. 43 м.
Вид битрейта : Постоянный
Битрейт : 384 Кбит/сек
Каналы : 6 каналов
Расположение каналов : Front: L C R, Side: L R, LFE
Частота : 48,0 КГц
Частота кадров : 31,250 кадров/сек (1536 SPF)
Битовая глубина : 16 бит
Метод сжатия : С потерями
Размер потока : 284 Мбайт (6%)
Язык : Russian
ServiceKind/String : Complete Main
Default : Да
Forced : Нет
Аудио #2
Идентификатор : 3
Формат : AC-3
Формат/Информация : Audio Coding 3
Идентификатор кодека : A_AC3
Продолжительность : 1 ч. 43 м.
Вид битрейта : Постоянный
Битрейт : 384 Кбит/сек
Каналы : 6 каналов
Расположение каналов : Front: L C R, Side: L R, LFE
Частота : 48,0 КГц
Частота кадров : 31,250 кадров/сек (1536 SPF)
Битовая глубина : 16 бит
Метод сжатия : С потерями
Размер потока : 284 Мбайт (6%)
Язык : English
ServiceKind/String : Complete Main
Default : Нет
Forced : Нет
Текст #1
Идентификатор : 4
Формат : UTF-8
Идентификатор кодека : S_TEXT/UTF8
Идентификатор кодека/Информация : UTF-8 Plain Text
Продолжительность : 1 ч. 35 м.
Битрейт : 79 бит/сек
ElementCount : 1020
Размер потока : 55,3 Кбайт (0%)
Язык : Russian
Default : Нет
Forced : Нет
Текст #2
Идентификатор : 5
Формат : UTF-8
Идентификатор кодека : S_TEXT/UTF8
Идентификатор кодека/Информация : UTF-8 Plain Text
Продолжительность : 1 ч. 36 м.
Битрейт : 48 бит/сек
ElementCount : 1060
Размер потока : 34,2 Кбайт (0%)
Язык : English
Default : Нет
Forced : Нет
Текст #3
Идентификатор : 6
Формат : UTF-8
Идентификатор кодека : S_TEXT/UTF8
Идентификатор кодека/Информация : UTF-8 Plain Text
Продолжительность : 1 ч. 42 м.
Битрейт : 45 бит/сек
ElementCount : 1012
Размер потока : 34,0 Кбайт (0%)
Язык : German
Default : Нет
Forced : Нет
Текст #4
Идентификатор : 7
Формат : UTF-8
Идентификатор кодека : S_TEXT/UTF8
Идентификатор кодека/Информация : UTF-8 Plain Text
Продолжительность : 1 ч. 42 м.
Битрейт : 40 бит/сек
ElementCount : 1016
Размер потока : 30,2 Кбайт (0%)
Язык : Spanish
Default : Нет
Forced : Нет
Текст #5
Идентификатор : 8
Формат : UTF-8
Идентификатор кодека : S_TEXT/UTF8
Идентификатор кодека/Информация : UTF-8 Plain Text
Продолжительность : 1 ч. 42 м.
Битрейт : 46 бит/сек
ElementCount : 1019
Размер потока : 34,5 Кбайт (0%)
Язык : French
Default : Нет
Forced : Нет
Текст #6
Идентификатор : 9
Формат : UTF-8
Идентификатор кодека : S_TEXT/UTF8
Идентификатор кодека/Информация : UTF-8 Plain Text
Продолжительность : 1 ч. 42 м.
Битрейт : 43 бит/сек
ElementCount : 984
Размер потока : 32,9 Кбайт (0%)
Язык : Italian
Default : Нет
Forced : Нет
Download / Скачать

Хотите скачать бесплатно? Зарегистрируйтесь на сайте (ссылка на регистрацию). Pirat.ca - самый быстрый торрент трекер в рунете!

Как скачивать  ·   Что такое торрент  ·   Рейтинг и ограничения



Последний раз редактировалось: tank69 (2018-11-07 21:55), всего редактировалось 2 раз(а)

sbrnd

Штурман

Пост 07-Ноя-2018 22:55 (спустя 1 час 58 минут)

[Q] 

хороший фильм
всем советую
Спасибо!!!
[Профиль]  [ЛС] 

koljan-2008

Гроза морей

10

Пост 08-Ноя-2018 12:38 (спустя 13 часов)

[Q] 

Трейлер интересный bf , думаю, надо посмотреть. Забираю в коллекцию. Лови бочку

_________________
Нужно лишь верить в мечту. Искренне верить! И тогда всё получится!
[Профиль]  [ЛС] 

Evkid

Лоцман

Пост 22-Ноя-2018 23:06 (спустя 14 дней)

[Q] 

По Кингу снят. Только недавно перечитывал. Нужно посмотреть...
[Профиль]  [ЛС] 
Показать сообщения:    
Ответить на тему

Текущее время: Сегодня 22:13

Часовой пояс: GMT + 4



Вы не можете начинать темы
Вы не можете отвечать на сообщения
Вы не можете редактировать свои сообщения
Вы не можете удалять свои сообщения
Вы не можете голосовать в опросах
Вы не можете прикреплять файлы к сообщениям
Вы не можете скачивать файлы

Майнать ▼