Собибор (Константин Хабенский) [2018 г., Военный, драма, BDRip 1080p] [iTunes]

Ответить на тему
 
Автор
Сообщение

Пост 20-Ноя-2018 10:34

[Q] 

dimas1000

- Собибор--Производство: Россия, Патриот Продакшнс
Режиссёр: Константин Хабенский
Жанр: Военный, Драма
Год выпуска: 2018 г.
Продолжительность: 01:57:05
Озвучивание: Оригинал
В ролях: Константин Хабенский, Кристофер Ламберт, Фелисе Янкелль, Дайнюс Казлаускас, Сергей Годин, Роман Агеев, Гела Месхи, Михалина Ольшанска, Мария Кожевникова, Вольфганг Черны-Описание: История сопротивления человеческого духа бездушной машине уничтожения. В октябре 1943 года заключённые лагеря Собибор во главе с лейтенантом Красной Армии Александром Печерским поднимают восстание — единственное успешное восстание в нацистском лагере смерти.
-Качество: BDRip 1080p
Формат: MKV
Видео кодек: MPEG-4 AVC
Аудио кодек: AC3
Видео: MPEG-4 AVC, 5000 Kb/s, 1920x804, 25.000 fps
Аудио: 48 kHz, AC3, 5.1, 384 Kbps | iTunes [RUS]
General
Unique ID : 232573151695607007081032660042209926507 (0xAEF7F5AFA0906E5FBFBEE53C0A499D6B)
Complete name : E:\Sobibor.2018.BDRip.1080p.mkv
Format : Matroska
Format version : Version 2
File size : 4.24 GiB
Duration : 1h 52mn
Overall bit rate : 5 380 Kbps
Encoded date : UTC 2018-11-17 03:53:07
Writing application : mkvmerge v7.8.0 ('River Man') 32bit built on Apr 3 2015 12:11:22
Writing library : libebml v1.3.1 + libmatroska v1.4.2
Video #1
ID : 1
Format : AVC
Format/Info : Advanced Video Codec
Format profile : [email protected]
Format settings, CABAC : Yes
Format settings, ReFrames : 5 frames
Codec ID : V_MPEG4/ISO/AVC
Duration : 1h 52mn
Bit rate : 5 000 Kbps
Width : 1 920 pixels
Height : 804 pixels
Display aspect ratio : 2.40:1
Frame rate mode : Variable
Frame rate : 25.000 fps
Color space : YUV
Chroma subsampling : 4:2:0
Bit depth : 8 bits
Scan type : Progressive
Bits/(Pixel*Frame) : 0.130
Stream size : 3.86 GiB (91%)
Writing library : x264 core 152 r2851 ba24899
Encoding settings : cabac=1 / ref=5 / deblock=1:-3:-2 / analyse=0x3:0x113 / me=umh / subme=10 / psy=1 / psy_rd=1.00:0.10 / mixed_ref=1 / me_range=32 / chroma_me=1 / trellis=2 / 8x8dct=1 / cqm=0 / deadzone=21,11 / fast_pskip=0 / chroma_qp_offset=-3 / threads=6 / lookahead_threads=1 / sliced_threads=0 / nr=0 / decimate=0 / interlaced=0 / bluray_compat=0 / constrained_intra=0 / bframes=16 / b_pyramid=2 / b_adapt=2 / b_bias=0 / direct=3 / weightb=1 / open_gop=0 / weightp=2 / keyint=250 / keyint_min=25 / scenecut=40 / intra_refresh=0 / rc=2pass / mbtree=0 / bitrate=5000 / ratetol=1.0 / qcomp=0.60 / qpmin=0 / qpmax=69 / qpstep=4 / cplxblur=20.0 / qblur=0.5 / ip_ratio=1.40 / pb_ratio=1.30 / aq=3:1.00
Language : English
Default : Yes
Forced : No
Color primaries : BT.709-5, BT.1361, IEC 61966-2-4, SMPTE RP177
Transfer characteristics : BT.709-5, BT.1361
Matrix coefficients : BT.709-5, BT.1361, IEC 61966-2-4 709, SMPTE RP177
Audio #2
ID : 2
Format : AC-3
Format/Info : Audio Coding 3
Mode extension : CM (complete main)
Format settings, Endianness : Big
Codec ID : A_AC3
Duration : 1h 52mn
Bit rate mode : Constant
Bit rate : 384 Kbps
Channel(s) : 6 channels
Channel positions : Front: L C R, Side: L R, LFE
Sampling rate : 48.0 KHz
Bit depth : 16 bits
Compression mode : Lossy
Stream size : 310 MiB (7%)
Default : Yes
Forced : No
Text #3
ID : 3
Format : UTF-8
Codec ID : S_TEXT/UTF8
Codec ID/Info : UTF-8 Plain Text
Language : Russian
Default : Yes
Forced : No
Menu
00:00:00.000 : :Chapter 01
00:02:30.080 : :Chapter 02
00:13:42.720 : :Chapter 03
00:17:18.200 : :Chapter 04
00:22:47.080 : :Chapter 05
00:26:04.239 : :Chapter 06
00:29:38.120 : :Chapter 07
00:38:21.920 : :Chapter 08
00:51:43.800 : :Chapter 09
01:06:52.680 : :Chapter 10
01:18:38.560 : :Chapter 11
01:22:31.760 : :Chapter 12
01:26:45.400 : :Chapter 13
01:31:03.360 : :Chapter 14
01:37:30.760 : :Chapter 15
01:47:03.520 : :Chapter 16
01:52:56.520 : :Chapter 17
Download / Скачать

Хотите скачать бесплатно? Зарегистрируйтесь на сайте (ссылка на регистрацию). Pirat.ca - самый быстрый торрент трекер в рунете!

Как скачивать  ·   Что такое торрент  ·   Рейтинг и ограничения



Последний раз редактировалось: dimas1000 (2018-11-20 15:00), всего редактировалось 6 раз(а)

dimas1000 ®

1003

Пост 20-Ноя-2018 11:28 (спустя 54 минуты)

[Q] 

подскажите почему не отображаются скриншоты???
скиньте прогу через которую сюда заливают скрины
Добавлено спустя 1 минута 26 секунд:
как тут в фильмы добавить скрины что бы они отображались???
Добавлено спустя 1 минута 23 секунды:
так все ок только со скринами проблема
Добавлено спустя 13 минут 38 секунд:
все уже все ок зделал скрины
[Профиль]  [ЛС] 

kugesan

62961

Пост 20-Ноя-2018 14:22 (спустя 2 часа 53 минуты)

[Q] 

dimas1000, Вечерком по общаемся на эту тему.
Добавлено спустя 1 минута 13 секунд:
Пока статус недооформлено, а вечером все поправим)

_________________
В мире две бесконечности: вселенная и человеческая глупость - Альберт Эйнштен
«Можно вытащить человека из грязи, но нельзя вытащить грязь из человека»!
[Профиль]  [ЛС] 

mitika

Штурман

Пост 20-Ноя-2018 22:39 (спустя 8 часов)

[Q] 

со скринами и разрешениями ... - Фигня!
Я - еврей которому каждому из вас ... скорее всего не дожить, и не потому что вы не еврееи ... я - исключение , увы, мне 96 и ....
ну не было в концлагерях такого ...... Было ещё хуже - если еврей - максимум 2-3 дня проживали , потом печь або газовая камера ...
а тут какойто мальчик рассказывает о специальных концлагерях для евреев !
Не было таких !!!!!!!!!!!!!!!!!!!!! нас уничтожали сразу !!!!!!!!!!!!!!!!!!!!
[Профиль]  [ЛС] 

sbrnd

Штурман

Пост 21-Ноя-2018 20:01 (спустя 21 час)

[Q] 

Спасибо!!! Качают ВСЕ!!!
хороший фильмец
[Профиль]  [ЛС] 

lmld

Шкипер

Пост 22-Ноя-2018 04:58 (спустя 8 часов)

[Q] 

Спасибо!!! Лови бочку
[Профиль]  [ЛС] 

kinstintin

Легенда

Пост 22-Ноя-2018 09:57 (спустя 4 часа)

[Q] 

Спасибо!!!
посмотрим
[Профиль]  [ЛС] 

Tramp

Корсар

98

Пост 22-Ноя-2018 11:34 (спустя 1 час 37 минут)

[Q] 

832180со скринами и разрешениями ... - Фигня!
Я - еврей которому каждому из вас ... скорее всего не дожить, и не потому что вы не еврееи ... я - исключение , увы, мне 96 и ....
ну не было в концлагерях такого ...... Было ещё хуже - если еврей - максимум 2-3 дня проживали , потом печь або газовая камера ...
а тут какойто мальчик рассказывает о специальных концлагерях для евреев !
Не было таких !!!!!!!!!!!!!!!!!!!!! нас уничтожали сразу !!!!!!!!!!!!!!!!!!!!
Мдааа... первый раз вижу, когда недоуч притворяется стариком, да еще и стариком евреем bj
[Профиль]  [ЛС] 

rtpanda

Лоцман

Пост 22-Ноя-2018 15:42 (спустя 4 часа)

[Q] 

Релизеру спасибо конечно . Но фильмец - кака. Не стоит тратить время на его просмотр. Ничего хорошего в нем нет .
[Профиль]  [ЛС] 

Алeкс

Корсар

95

Пост 22-Ноя-2018 16:06 (спустя 24 минуты)

[Q] 

Спасибо!!!
Заценим
[Профиль]  [ЛС] 

redfield

Корсар

Пост 23-Ноя-2018 21:33 (спустя 1 день 5 часов)

[Q] 

Фильм аля срезать бабло бюджета, я так понимаю?
[Профиль]  [ЛС] 
Показать сообщения:    
Ответить на тему

Текущее время: Сегодня 07:23

Часовой пояс: GMT + 4



Вы не можете начинать темы
Вы не можете отвечать на сообщения
Вы не можете редактировать свои сообщения
Вы не можете удалять свои сообщения
Вы не можете голосовать в опросах
Вы не можете прикреплять файлы к сообщениям
Вы не можете скачивать файлы

Майнать ▼