Домашний арест / Сезон: 1 / Серии: 1-12 (Петр Буслов) [2018 г., комедия, WEBRip-AVC, 720p]

Ответить на тему
 
Автор
Сообщение

Пост 05-Ноя-2018 10:10

[Q] 

glazik

Шкипер

-Домашний арест-- Производство: Россия, Comedy Club Production
Жанр: комедия
Год выпуска: 2018 г.
Продолжительность: 01:10:00
Российская премьера: 16 августа 2018
Режиссёр: Петр Буслов-В ролях: Павел Деревянко, Александр Робак, Анна Уколова, Сергей Бурунов, Светлана Ходченкова, Тимофей Трибунцев, Егор Клинаев, Юлия Сорокина, Роман Мадянов, Марина Александрова, Яна Кошкина, Альбина Тиханова-Описание: Мэр небольшого города попался на взятке и в качестве меры пресечения ему назначен домашний арест по месту прописки. Коллизия в том, что, чтобы казаться скромнее, чиновник прописан не в своем особняке, а в коммунальной квартире, в которой когда-то родился и вырос. Так он попадает в коммунальный ад своей старой квартиры. Он больше не главный и сам в свою очередь оказывается во власти простых обитателей коммуналки.-
Качество видео: WEBRip-AVC
Контейнер: MKV
Стандарт разрешения: 720p
Видео кодек: MPEG4 AVC
Аудио кодек: AC3
Видео: 1387 Кбит/сек, 1024x576 (16:9), 25 кадр/сек
Аудио: 192 Кбит/сек, 48 КГц, 2.0
Cубтитры: отсутствуют
Общее
Уникальный идентификатор : 207575425634474724032383776992115930049 (0x9C2992A2AEB03EDA939ED74F8B09B3C1)
Полное имя : E:\Видео\Сериалы\Domashniy.Arest.2018.WEBRip\Domashniy.Arest.e01.mkv
Формат : Matroska
Версия формата : Version 4
Размер файла : 764 Мбайт
Продолжительность : 1 ч. 7 м.
Общий поток : 1581 Кбит/сек
Название фильма : Домашний арест (2018) | Rip by stalkerok
Дата кодирования : UTC 2018-10-20 09:00:39
Программа кодирования : mkvmerge v8.6.1 ('Flying') 64bit
Библиотека кодирования : libebml v1.3.3 + libmatroska v1.4.4
Видео
Идентификатор : 1
Формат : AVC
Формат/Информация : Advanced Video Codec
Профиль формата : [email protected]
Настройки формата : CABAC / 12 Ref Frames
Параметр CABAC формата : Да
Параметр RefFrames формата : 12 кадров
Идентификатор кодека : V_MPEG4/ISO/AVC
Продолжительность : 1 ч. 7 м.
Битрейт : 1387 Кбит/сек
Ширина : 1024 пикселя
Высота : 576 пикселей
Соотношение сторон : 16:9
Режим частоты кадров : Постоянный
Частота кадров : 25,000 кадров/сек
Цветовое пространство : YUV
Субдискретизация насыщенности : 4:2:0
Битовая глубина : 8 бит
Тип развёртки : Прогрессивная
Бит/(Пиксели*Кадры) : 0.094
Размер потока : 670 Мбайт (88%)
Заголовок : Домашний арест (2018) | Rip by stalkerok
Библиотека кодирования : x264 core 157 r2932 303c484
Настройки программы : cabac=1 / ref=12 / deblock=1:-3:-2 / analyse=0x3:0x133 / me=umh / subme=10 / psy=1 / psy_rd=1.00:0.00 / mixed_ref=1 / me_range=32 / chroma_me=1 / trellis=2 / 8x8dct=1 / cqm=0 / deadzone=21,11 / fast_pskip=0 / chroma_qp_offset=-2 / threads=12 / lookahead_threads=3 / sliced_threads=0 / nr=0 / decimate=1 / interlaced=0 / bluray_compat=0 / constrained_intra=0 / bframes=14 / b_pyramid=2 / b_adapt=2 / b_bias=0 / direct=3 / weightb=1 / open_gop=0 / weightp=2 / keyint=250 / keyint_min=25 / scenecut=40 / intra_refresh=0 / rc_lookahead=60 / rc=crf / mbtree=0 / crf=19.7 / qcomp=0.65 / qpmin=0 / qpmax=69 / qpstep=4 / vbv_maxrate=50000 / vbv_bufsize=62500 / crf_max=0.0 / nal_hrd=none / filler=0 / ip_ratio=1.40 / pb_ratio=1.30 / aq=3:0.80
Default : Да
Forced : Нет
Аудио
Идентификатор : 2
Формат : AC-3
Формат/Информация : Audio Coding 3
Коммерческое название : Dolby Digital
Идентификатор кодека : A_AC3
Продолжительность : 1 ч. 7 м.
Вид битрейта : Постоянный
Битрейт : 192 Кбит/сек
Каналы : 2 канала
Channel layout : L R
Частота : 48,0 КГц
Частота кадров : 31,250 кадров/сек (1536 SPF)
Битовая глубина : 16 бит
Метод сжатия : С потерями
Размер потока : 92,8 Мбайт (12%)
Язык : Russian
ServiceKind/String : Complete Main
Default : Да
Forced : Нет
Download / Скачать

Хотите скачать бесплатно? Зарегистрируйтесь на сайте (ссылка на регистрацию). Pirat.ca - самый быстрый торрент трекер в рунете!

Как скачивать  ·   Что такое торрент  ·   Рейтинг и ограничения



Последний раз редактировалось: glazik (2018-11-05 21:41), всего редактировалось 8 раз(а)

Alingva

Легенда

498

Пост 05-Ноя-2018 10:30 (спустя 19 минут)

[Q] 

Раздающему Спасибо!!!

_________________
Если Вам кажется что у Вас нимб над головой, то не обращайте на него внимание - это просто мания величия!
[Профиль]  [ЛС] 

Parabelum

Пост 05-Ноя-2018 12:39 (спустя 2 часа 9 минут)

[Q] 

glazik, ghbdtn
[Профиль]  [ЛС] 

fff777

Штурман

Пост 11-Ноя-2018 08:25 (спустя 5 дней)

[Q] 

Хороший сериал . В меру юмора , нет на удивление плоских шуток Камеди клаба . Понравился одним словом .
[Профиль]  [ЛС] 

Дядя Сэм

Морской Волк

Пост 11-Ноя-2018 11:30 (спустя 3 часа)

[Q] 

Вообще-то - это злобный поклеп на региональные элиты и далее..... вверх по вертикали! Не качайте!
[Профиль]  [ЛС] 

katja2212

Лоцман

Пост 12-Ноя-2018 20:04 (спустя 1 день 8 часов)

[Q] 

много слышала, глянем. Спасибо!!!
[Профиль]  [ЛС] 

distorshion

Юнга

Пост 20-Ноя-2018 20:38 (спустя 8 дней)

[Q] 

Хороший, не без изъянов, но таких не много в мире говна нашего телеэфира.
[Профиль]  [ЛС] 

rus00

Лоцман

Пост 25-Ноя-2018 12:44 (спустя 4 дня)

[Q] 

Отличный сериал.
[Профиль]  [ЛС] 

SashaSofer

Штурман

Пост 13-Дек-2018 13:58 (спустя 18 дней)

[Q] 

спасибо за раздачу
[Профиль]  [ЛС] 
Показать сообщения:    
Ответить на тему

Текущее время: Сегодня 10:22

Часовой пояс: GMT + 4



Вы не можете начинать темы
Вы не можете отвечать на сообщения
Вы не можете редактировать свои сообщения
Вы не можете удалять свои сообщения
Вы не можете голосовать в опросах
Вы не можете прикреплять файлы к сообщениям
Вы не можете скачивать файлы

Майнать ▼