Такси 5 / Taxi 5 (Франк Гастамбид / Franck Gastambide) [2018 г., боевик, комедия, криминал, приключения, BDRip, 1080p] Dub [iTunes]

Ответить на тему
 
Автор
Сообщение

Пост 15-Авг-2018 09:48

[Q] 

AlexDjas

Гроза морей

--Такси 5 / Taxi 5Вызывали?-- Производство: Франция
Год выпуска: 2018 г.
Жанр: боевик, комедия, криминал, приключения
Продолжительность: 01:41:54
Мировая премьера: 7 апреля 2018
Российская премьера: 10 мая 2018
Дата выхода DVD: 13 августа 2018
Перевод: Профессиональный (полное дублирование) [iTunes]
Режиссёр: Франк Гастамбид / Franck Gastambide--В ролях: Франк Гастамбид, Малик Бенталха, Бернар Фарси, Сальваторе Эспозито, Эдуард Монтут, Сабрина Уазани, Ануар Тубали, Сисси Дюпарк--Описание: Экс-комиссар Жибер, ставший самым непутевым в истории города мэром Марселя, поручает переведенному из столицы новобранцу Сильвану Маро разобраться с неуловимой «бандой итальянцев» на Ferrari. Чтобы остановить их, Маро, суперкопу и суперводителю, приходится объединиться с племянником Даниэля. Парню досталось знаменитое белое такси дяди, но не его талант.-- Качество видео: BDRip
Контейнер: MKV
Стандарт разрешения: 1080p
Видео кодек: MPEG4 AVC
Аудио кодек: AC3
Видео: H.264/AVC, 1920x804, ~9350 Kbps, 24.000 fps
Аудио: 48 kHz, AC3 Dolby Digital, 3/2 (L,C,R,l,r) + LFE ch, ~384 kbps
Cубтитры: отсутствуют
Общее
Уникальный идентификатор : 301264445662687948819056829348906959348 (0xE2A56BF50FDE89FA4B3EEEFF0ED681F4)
Полное имя : D:\pirat\Taxi_5_2018_BDRip_1080p[pirat.ca].mkv
Формат : Matroska
Версия формата : Version 4 / Version 2
Размер файла : 6,91 Гбайт
Продолжительность : 1 ч. 41 м.
Общий поток : 9715 Кбит/сек
Название фильма : Taxi 5 2018
Дата кодирования : UTC 2018-08-15 05:14:12
Программа кодирования : mkvmerge v25.0.0 ('Prog Noir') 64-bit
Библиотека кодирования : libebml v1.3.6 + libmatroska v1.4.9
Обложка : Yes
Attachments : cover.jpg
Видео
Идентификатор : 1
Формат : AVC
Формат/Информация : Advanced Video Codec
Профиль формата : [email protected]
Настройки формата : CABAC / 5 Ref Frames
Параметр CABAC формата : Да
Параметр RefFrames формата : 5 кадров
Идентификатор кодека : V_MPEG4/ISO/AVC
Продолжительность : 1 ч. 41 м.
Битрейт : 9350 Кбит/сек
Ширина : 1920 пикселей
Высота : 804 пикселя
Соотношение сторон : 2,40:1
Режим частоты кадров : Постоянный
Частота кадров : 24,000 кадра/сек
Цветовое пространство : YUV
Субдискретизация насыщенности : 4:2:0
Битовая глубина : 8 бит
Тип развёртки : Прогрессивная
Бит/(Пиксели*Кадры) : 0.252
Размер потока : 6,64 Гбайт (96%)
Заголовок : Taxi 5 2018
Библиотека кодирования : x264 core 148 r2705 3f5ed56
Настройки программы : cabac=1 / ref=5 / deblock=1:-2:-2 / analyse=0x3:0x133 / me=umh / subme=11 / psy=1 / psy_rd=1.20:0.30 / mixed_ref=1 / me_range=48 / chroma_me=1 / trellis=2 / 8x8dct=1 / cqm=0 / deadzone=21,11 / fast_pskip=0 / chroma_qp_offset=-4 / threads=12 / lookahead_threads=2 / sliced_threads=0 / nr=0 / decimate=0 / interlaced=0 / bluray_compat=0 / constrained_intra=0 / bframes=8 / b_pyramid=2 / b_adapt=2 / b_bias=0 / direct=3 / weightb=1 / open_gop=0 / weightp=2 / keyint=240 / keyint_min=24 / scenecut=40 / intra_refresh=0 / rc_lookahead=50 / rc=2pass / mbtree=0 / bitrate=9350 / ratetol=1.0 / qcomp=0.60 / qpmin=0 / qpmax=51 / qpstep=4 / cplxblur=20.0 / qblur=0.5 / vbv_maxrate=50000 / vbv_bufsize=62500 / nal_hrd=none / filler=0 / ip_ratio=1.40 / pb_ratio=1.30 / aq=3:0.80
Язык : English
Default : Да
Forced : Нет
Аудио
Идентификатор : 2
Формат : AC-3
Формат/Информация : Audio Coding 3
Идентификатор кодека : A_AC3
Продолжительность : 1 ч. 41 м.
Вид битрейта : Постоянный
Битрейт : 384 Кбит/сек
Каналы : 6 каналов
Расположение каналов : Front: L C R, Side: L R, LFE
Частота : 48,0 КГц
Частота кадров : 31,250 кадров/сек (1536 SPF)
Битовая глубина : 16 бит
Метод сжатия : С потерями
Размер потока : 280 Мбайт (4%)
Заголовок : iTunes
Язык : Russian
ServiceKind/String : Complete Main
Default : Да
Forced : Да
Меню
00:00:00.000 : en:00:00:00.000
00:09:24.167 : en:00:09:24.167
00:17:19.417 : en:00:17:19.417
00:27:35.000 : en:00:27:35.000
00:34:09.750 : en:00:34:09.750
00:41:46.833 : en:00:41:46.833
00:50:04.125 : en:00:50:04.125
00:58:29.625 : en:00:58:29.625
01:06:05.708 : en:01:06:05.708
01:14:53.167 : en:01:14:53.167
01:23:59.333 : en:01:23:59.333
01:32:28.750 : en:01:32:28.750
Download / Скачать

Хотите скачать бесплатно? Зарегистрируйтесь на сайте (ссылка на регистрацию). Pirat.ca - самый быстрый торрент трекер в рунете!

Как скачивать  ·   Что такое торрент  ·   Рейтинг и ограничения

zja

Шкипер

Пост 16-Авг-2018 10:26 (спустя 1 день)

[Q] 

народ поддайте скорости Не качает
[Профиль]  [ЛС] 

Madgara

Морской Волк

Пост 19-Авг-2018 12:11 (спустя 3 дня)

[Q] 

ГОВНОФИЛЬМ! никак не связано с прошлыми такси.

_________________
[Профиль]  [ЛС] 

Alingva

Легенда

497

Пост 29-Авг-2018 11:03 (спустя 9 дней)

[Q] 

829813ГОВНОФИЛЬМ! никак не связано с прошлыми такси.
IMHO: Этим этот сериал стал уже со второй части.

_________________
Если Вам кажется что у Вас нимб над головой, то не обращайте на него внимание - это просто мания величия!
[Профиль]  [ЛС] 

redfield

Корсар

Пост 28-Сен-2018 22:42 (спустя 30 дней)

[Q] 

Не тянет оно на предыдущие фильмы
[Профиль]  [ЛС] 

iframes

Шкипер

Пост 03-Ноя-2018 01:24 (спустя 1 месяц 4 дня)

[Q] 

Стоит время тратить на просмотр?
[Профиль]  [ЛС] 

lmld

Шкипер

Пост 21-Ноя-2018 06:25 (спустя 18 дней)

[Q] 

Спасибо, избавили от пустой траты времени 27
[Профиль]  [ЛС] 

koljan-2008

Гроза морей

10

Пост 25-Ноя-2018 16:29 (спустя 4 дня)

[Q] 

Посмотрим, что за фильмец. Позже отпишусь Раздающему респект!

_________________
Нужно лишь верить в мечту. Искренне верить! И тогда всё получится!
[Профиль]  [ЛС] 
Показать сообщения:    
Ответить на тему

Текущее время: Сегодня 22:10

Часовой пояс: GMT + 4



Вы не можете начинать темы
Вы не можете отвечать на сообщения
Вы не можете редактировать свои сообщения
Вы не можете удалять свои сообщения
Вы не можете голосовать в опросах
Вы не можете прикреплять файлы к сообщениям
Вы не можете скачивать файлы

Майнать ▼