Первому игроку приготовиться / Ready Player One (Стивен Спилберг / Steven Spielberg) [2018, фантастика, боевик, приключения, HDRip] Дубляж - [Лицензия / iTunes]

Ответить на тему
 
Автор
Сообщение

Пост 04-Июл-2018 20:07

[Q] 

Су-34

Легенда

Первому игроку приготовиться / Ready Player One «Загрузи новую реальность»- -
Год выпуска: 2018
Страна: США
Жанр: фантастика, боевик, приключения
Продолжительность: 02:19:58
Перевод: Дубляж - [Лицензия / iTunes]
Субтитры: русские (форс.) отдельно- Режиссер: Стивен Спилберг / Steven Spielberg- В ролях:
-Тай Шеридан (Parzival / Wade), Оливия Кук (Art3mis / Samantha), Бен Мендельсон (Sorrento), Лина Уэйте (Aech / Helen), ТиДжей Миллер (I-R0k), Саймон Пегг (Ogden Morrow), Марк Райлэнс (Anorak / Halliday), Филип Чжао (Sho), Уин Морисаки (Daito), Ханна Джон-Кэймен (F'Nale Zandor), Ралф Айнесон (Rick), Сьюзэн Линч (Alice)- Описание:
Действие фильма происходит в 2045 году, мир погружается в хаос и находится на грани коллапса. Люди ищут спасения в игре OASIS - огромной вселенной виртуальной реальности. Ее создатель, гениальный и эксцентричный Джеймс Холлидэй, оставляет уникальное завещание. Все его колоссальное состояние получит игрок, первым обнаруживший цифровое «пасхальное яйцо», которое миллиардер спрятал где-то на просторах OASISа. Запущенный им квест охватывает весь мир. Совершенно негероический парень по имени Уэйд Уоттс решает принять участие в состязании, с головой бросаясь в головокружительную, искажающую реальность погоню за сокровищами по фантастической вселенной, полной загадок, открытий и опасностей.-Семпл: http://sendfile.su/1428879
https://www.imdb.com/title/tt1677720/
https://www.kinopoisk.ru/film/538225/- Качество: HDRip
Формат: AVI
Видео кодек: XviD
Аудио кодек: AC3
Видео: XviD, 720x304 (2.35:1), 1289 kbps, 23,976 fps, 0,246 bpp
Аудио: AC3 / 2.0 / 48 kHz / 192 kbps /-
General
Complete name : Z:\Torrents\Ready.Player.One.2018.HDRip.1.46Gb.MegaPeer\Ready.Player.One.2018.HDRip.1.46Gb.MegaPeer.avi
Format : AVI
Format/Info : Audio Video Interleave
File size : 1.46 GiB
Duration : 2 h 19 min
Overall bit rate : 1 491 kb/s
Writing application : VirtualDubMod 1.5.10.2 (build 2540/release)
Writing library : VirtualDubMod build 2540/release
Video
ID : 0
Format : MPEG-4 Visual
Format profile : Advanced [email protected]
Format settings, BVOP : 1
Format settings, QPel : No
Format settings, GMC : No warppoints
Format settings, Matrix : Custom
Codec ID : XVID
Codec ID/Hint : XviD
Duration : 2 h 19 min
Bit rate : 1 290 kb/s
Width : 720 pixels
Height : 304 pixels
Display aspect ratio : 2.35:1
Frame rate : 23.976 (24000/1001) FPS
Color space : YUV
Chroma subsampling : 4:2:0
Bit depth : 8 bits
Scan type : Progressive
Compression mode : Lossy
Bits/(Pixel*Frame) : 0.246
Stream size : 1.26 GiB (86%)
Writing library : XviD 73
Audio
ID : 1
Format : AC-3
Format/Info : Audio Coding 3
Mode extension : CM (complete main)
Format settings, Endianness : Big
Codec ID : 2000
Duration : 2 h 19 min
Bit rate mode : Constant
Bit rate : 192 kb/s
Channel(s) : 2 channels
Channel positions : Front: L R
Sampling rate : 48.0 kHz
Frame rate : 31.250 FPS (1536 spf)
Compression mode : Lossy
Stream size : 192 MiB (13%)
Alignment : Split accross interleaves
Interleave, duration : 42 ms (1.00 video frame)
Interleave, preload duration : 500 ms
Download / Скачать

Хотите скачать бесплатно? Зарегистрируйтесь на сайте (ссылка на регистрацию). Pirat.ca - самый быстрый торрент трекер в рунете!

Как скачивать  ·   Что такое торрент  ·   Рейтинг и ограничения



Последний раз редактировалось: Су-34 (2018-07-05 19:20), всего редактировалось 1 раз

Пост 05-Июл-2018 20:14 (спустя 1 день)

Топик был перенесен из форума Зарубежное Кино (Трюм) в форум Новинки (HD|DVD|BD| TV|SAT|PDTV| - Rips)
gross1978
 

Lassard

Штурман

Пост 08-Июл-2018 01:24 (спустя 3 дня)

[Q] 

ходил на ЭТО даже в кино. ужасная смесь образов, которые на секунду появляются в кадре, затем пропадают без следа...и всё. сюжет нулевой. актеры тоже. имхо - фильм ОЧЕНЬ на любителя, как по мне - два с лишним часа жизни впустую
[Профиль]  [ЛС] 

vasdas

Корсар

Пост 08-Июл-2018 03:52 (спустя 2 часа 28 минут)

[Q] 

посмотрим, за ценим Автору респект!!!
[Профиль]  [ЛС] 

clark

Флибустьер

Пост 10-Июл-2018 19:22 (спустя 2 дня 15 часов)

[Q] 

посмотрим спасибо!!!

_________________
Последним смеётся тот, кто стреляет первым.
[Профиль]  [ЛС] 

silwendil

Флибустьер

741

Пост 13-Июл-2018 10:12 (спустя 2 дня 14 часов)

[Q] 

а мне понравился, столько отсылок к разным игрушкам, чего "святая ручная граната" стоит! Аллилуйа! bp
[Профиль]  [ЛС] 

Keep Smile

Лоцман

Пост 14-Июл-2018 16:52 (спустя 1 день 6 часов)

[Q] 

Как всегда с экранизациями, от книжки остался только общий слысл... Но разок-два глянуть можно, но лучше книшу перечитать... в ней хоть сюжет есть))
[Профиль]  [ЛС] 

Naylo

Корсар

Пост 15-Июл-2018 13:17 (спустя 20 часов)

[Q] 

ребят, ну правда, столько пасхалок, как 100500 пасхалок воткнуть в такой маленький фильмец, а тут тебе и фильмы и игры всей индустрии начиная с атари.

_________________
[Профиль]  [ЛС] 

exelero07

Гроза морей

Пост 20-Июл-2018 23:24 (спустя 5 дней)

[Q] 

не понравился, слишком компьютерный
[Профиль]  [ЛС] 

E-RTY

Флибустьер

30

Пост 26-Июл-2018 23:22 (спустя 5 дней)

[Q] 

надо глянуть самому потом отпишусь!
[Профиль]  [ЛС] 

Андря

8658

Пост 27-Июл-2018 00:45 (спустя 1 час 23 минуты)

[Q] 

мне фильм понравился

_________________
Като Тешекика
[Профиль]  [ЛС] 

sztksales

Морской Волк

391

Пост 25-Ноя-2018 20:37 (спустя 3 месяца 29 дней)

[Q] 

Короче, данное произведение напоминает фильм аватар, где добро побеждает зло.
Всем качать!!!

_________________
[Профиль]  [ЛС] 

Роман Чистов

Шкипер

Пост 09-Дек-2018 18:34 (спустя 13 дней)

[Q] 

Целевая аудитория фильма - те, кто старше 40 и те, кто младше 20. Все остальные ничего не поймут или не получат удовольствие - и могут не тратить свое драгоценное время на скачивание (и на ругань в адрес фильма).
[Профиль]  [ЛС] 

Ливень

Флибустьер

Пост 14-Дек-2018 20:59 (спустя 5 дней)

[Q] 

Наивный детский фильм-полумультик, где сразу ясно кто плохой, а кто добрый. Наверно, для США - это фильм-ностальгия про зарождение эпохи компьютерных игр, а для нас - мешанина образов и исторических личностей игровой индустрии, с которыми мы не знакомы. Людям, которые разбираются в истории игровой индустрии (не в играх, а именно в истории) понравится, остальным - только от нечего делать можно посмотреть.
[Профиль]  [ЛС] 

sliwi657

Корсар

Пост Вчера 02:10 (спустя 3 дня)

[Q] 


_________________
be nice to each other
[Профиль]  [ЛС] 
Показать сообщения:    
Ответить на тему

Текущее время: Сегодня 01:04

Часовой пояс: GMT + 4



Вы не можете начинать темы
Вы не можете отвечать на сообщения
Вы не можете редактировать свои сообщения
Вы не можете удалять свои сообщения
Вы не можете голосовать в опросах
Вы не можете прикреплять файлы к сообщениям
Вы не можете скачивать файлы

Майнать ▼