Нокс / Nox / Сезон: 1 / Серии: 1-6 из 6 (Мабрук Эль Мекри / Mabrouk El Mechri) [2018 г., триллер, ужасы, криминал, HDTVRip, 720p] DVO

Ответить на тему
 
Автор
Сообщение

Пост 25-Ноя-2018 13:04

[Q] 

tank69

Флибустьер

-Нокс / Nox-- Производство: Франция, Canal+
Жанр: триллер, ужасы, криминал
Год выпуска: 2018 г.
Продолжительность: 00:51:30
Мировая премьера: 12 марта 2018
Перевод: Любительский (двухголосый, закадровый)
Режиссёр: Мабрук Эль Мекри / Mabrouk El Mechri-В ролях: Натали Бай, Малик Зиди, Майвенн Ле Беско, Фредерик Пьеро, Дэмиен Шапель, Ксавье Робик, Лубна Азабаль, Matthieu Burnel, Дали Бенссалах, Патрик д'Асумсао-Описание: Худший кошмар в сердце самого красивого города мира: зло затаилось в катакомбах Парижа и готово вырваться наружу. Во время спецоперации в парижских подземных туннелях бесследно пропадает лейтенант Жюли Сузини — прямо на глазах у своего партнера, Рафаэля Бергера. Последнее, что успела сделать Жюли до своего исчезновения — поссориться с матерью, Катрин, и написать заявление об отставке. Катрин, ранее также служившая в полиции, убеждена: только она сможет найти свою дочь. Вместе с Рафаэлем, в прошлом пережившим неудачный роман с Жюли, Катрин предстоит изучить мрачные лабиринты под Парижем, где их ждет несколько жутких сюрпризов: оказалось, лейтенант Сузини — далеко не первая пропавшая в подземелье. Так начинается смертельная гонка со временем в полной темноте: чтобы спасти Жюли, главным героям придется спуститься в настоящий ад и вернуться обратно.-
Качество видео: HDTVRip
Контейнер: MKV
Стандарт разрешения: 720p
Видео кодек: MPEG4 AVC
Аудио кодек: AC3
Видео: AVC, 1280x536, 25.000 fps, 1951 Kbps
Аудио: Rus: AC-3, 48.0 KHz, 2 ch, 192 Kbps
Cубтитры: отсутствуют
ПРИСУТСТВУЕТ РЕКЛАМА
Общее
Уникальный идентификатор : 209879326924670091533250089232865108612 (0x9DE549BD3315C2A89C5C45AAF3272284)
Полное имя : C:\Users\vigor\Downloads\Nox.S01.720p.KosharaSerials\Nox.S01E01.720p.KosharaSerials.mkv
Формат : Matroska
Версия формата : Version 4 / Version 2
Размер файла : 796 Мбайт
Продолжительность : 51 м. 52 с.
Общий поток : 2145 Кбит/сек
Дата кодирования : UTC 2018-11-22 13:07:41
Программа кодирования : mkvmerge v8.3.0 ('Over the Horizon') 64bit
Библиотека кодирования : libebml v1.3.1 + libmatroska v1.4.2
Видео
Идентификатор : 2
Формат : AVC
Формат/Информация : Advanced Video Codec
Профиль формата : [email protected]
Настройки формата : CABAC / 4 Ref Frames
Параметр CABAC формата : Да
Параметр RefFrames формата : 4 кадра
Идентификатор кодека : V_MPEG4/ISO/AVC
Продолжительность : 51 м. 52 с.
Битрейт : 1951 Кбит/сек
Ширина : 1280 пикселей
Высота : 536 пикселей
Соотношение сторон : 2,40:1
Режим частоты кадров : Постоянный
Частота кадров : 25,000 кадров/сек
Цветовое пространство : YUV
Субдискретизация насыщенности : 4:2:0
Битовая глубина : 8 бит
Тип развёртки : Прогрессивная
Бит/(Пиксели*Кадры) : 0.114
Размер потока : 724 Мбайт (91%)
Библиотека кодирования : x264 core 146 r2538 121396c
Настройки программы : cabac=1 / ref=1 / deblock=1:0:0 / analyse=0x3:0x113 / me=hex / subme=2 / psy=1 / psy_rd=1.00:0.00 / mixed_ref=0 / me_range=16 / chroma_me=1 / trellis=0 / 8x8dct=1 / cqm=0 / deadzone=21,11 / fast_pskip=1 / chroma_qp_offset=0 / threads=18 / lookahead_threads=4 / sliced_threads=0 / nr=0 / decimate=1 / interlaced=0 / bluray_compat=0 / constrained_intra=0 / bframes=3 / b_pyramid=2 / b_adapt=1 / b_bias=0 / direct=1 / weightb=1 / open_gop=0 / weightp=1 / keyint=250 / keyint_min=25 / scenecut=40 / intra_refresh=0 / rc_lookahead=10 / rc=crf / mbtree=1 / crf=18.0 / qcomp=0.60 / qpmin=0 / qpmax=69 / qpstep=4 / ip_ratio=1.40 / aq=1:1.00
Default : Да
Forced : Нет
Аудио
Идентификатор : 1
Формат : AC-3
Формат/Информация : Audio Coding 3
Идентификатор кодека : A_AC3
Продолжительность : 51 м. 52 с.
Вид битрейта : Постоянный
Битрейт : 192 Кбит/сек
Каналы : 2 канала
Расположение каналов : Front: L R
Частота : 48,0 КГц
Частота кадров : 31,250 кадров/сек (1536 SPF)
Битовая глубина : 16 бит
Метод сжатия : С потерями
Размер потока : 71,2 Мбайт (9%)
ServiceKind/String : Complete Main
Default : Да
Forced : Нет
СОДЕРЖИТ РЕКЛАМУ
Download / Скачать

Хотите скачать бесплатно? Зарегистрируйтесь на сайте (ссылка на регистрацию). Pirat.ca - самый быстрый торрент трекер в рунете!

Как скачивать  ·   Что такое торрент  ·   Рейтинг и ограничения



Последний раз редактировалось: tank69 (2018-11-26 01:26), всего редактировалось 12 раз(а)

tank69 ®

Флибустьер

1671

Пост 25-Ноя-2018 13:06 (спустя 1 минута)

[Q] 

Неожиданно интересный и динамичный сюжет, смотрится на одном дыхании)
Жаль, что без хэппи энда (
Приятного просмотра!
[Профиль]  [ЛС] 

kugesan

62969

Пост 25-Ноя-2018 21:14 (спустя 8 часов)

[Q] 

Вопрос... С каких пор Koshara стал озвучивать сериалы и почему его озвучка профессиональная?-Кинопоиск, ссылка не правильная.
tank69, Вы считаете что это рип? 720р...
Добавьте сэмпл.

_________________
В мире две бесконечности: вселенная и человеческая глупость - Альберт Эйнштен
«Можно вытащить человека из грязи, но нельзя вытащить грязь из человека»!
[Профиль]  [ЛС] 

kugesan

62969

Пост 26-Ноя-2018 01:08 (спустя 3 часа)

[Q] 

Сэмпл должен содержать разговор нескольких персонажей.
Повторяю вопрос, кто решил что озвучка KosharaSerials профессиональная?

_________________
В мире две бесконечности: вселенная и человеческая глупость - Альберт Эйнштен
«Можно вытащить человека из грязи, но нельзя вытащить грязь из человека»!
[Профиль]  [ЛС] 

tank69 ®

Флибустьер

1671

Пост 26-Ноя-2018 01:28 (спустя 20 минут)

[Q] 

kugesan,
Залил семпл со звуком.
То, что озвучка проф..они сами (кошара) и указывают)
[Профиль]  [ЛС] 

kugesan

62969

Пост 26-Ноя-2018 10:30 (спустя 9 часов)

[Q] 

...
То, что озвучка проф..они сами (кошара) и указывают)
tank69, Самозванцев у нас много.
Звание профессионала надо заработать-заслужить... И вот когда их признают, признает общественность, на популярных треках их раздачи будут скачиваться хотя бы на равне с заслуженными, с такими как Лост, КвК, Нью, Амедиа и так далее ... вот тогда можно говорить об их профессионализме...
А пока только любительский.

_________________
В мире две бесконечности: вселенная и человеческая глупость - Альберт Эйнштен
«Можно вытащить человека из грязи, но нельзя вытащить грязь из человека»!
[Профиль]  [ЛС] 
Показать сообщения:    
Ответить на тему

Текущее время: Сегодня 22:03

Часовой пояс: GMT + 4



Вы не можете начинать темы
Вы не можете отвечать на сообщения
Вы не можете редактировать свои сообщения
Вы не можете удалять свои сообщения
Вы не можете голосовать в опросах
Вы не можете прикреплять файлы к сообщениям
Вы не можете скачивать файлы

Майнать ▼