Автобан / Collide (Эрен Криви / Eran Creevy) [2016 г., боевик, триллер, BDRip] Dub [iTunes]

Ответить на тему
 
Автор
Сообщение

Пост 16-Май-2017 23:19

[Q] 

ara1205

-Автобан / Collide-- Производство: Великобритания, Германия, Китай
Год выпуска: 2016 г.
Жанр: боевик, триллер
Продолжительность: 01:38:42
Перевод: Профессиональный (полное дублирование) [iTunes]-Режиссер: Эрен Криви / Eran Creevy-В ролях: Фелисити Джонс, Энтони Хопкинс, Николас Холт, Бен Кингсли, Надиа Хилкер, Марван Кензари, Клеменс Шик, Александр Йованович, Кристиан Перерсен, Линдси Элизабет-Описание: Американский турист Кейси Штайн, путешествуя с подругой по Европе, оказывается втянутым в разборки между двумя враждующими мафиозными группировками. Одну из них возглавляет Хаген, другую — Геран. И с этого момента начинается смертельно опасная гонка на запредельной скорости по автобанам Германии.- -Качество видео: BDRip
Контейнер: AVI
Видео кодек: XviD
Аудио кодек: AC3
Видео: 720x304, 23,976 fps, 1660 kbps avg, 0.316 bit/pixel
Аудио: 48 kHz, AC3 Dolby Digital, 3/2 (L,C,R,l,r) + LFE ch, ~384 kbps
Cубтитры: отсутствуют-
Общее
Полное имя : C:\Users\Admin\Pictures\Автобан\Avtoban.2016.BDRip.[pirat.ca].avi
Формат : AVI
Формат/Информация : Audio Video Interleave
Размер файла : 1,42 Гбайт
Продолжительность : 1 ч. 38 м.
Общий поток : 2053 Кбит/сек
Название фильма : Автобан / Collide / Avtoban.2016.P.BDRip.1.46Gb_ExKinoRay_by_Twi7ter
Режиссёр : Twi7tert
Жанр : Action/Thriller
Программа кодирования : VirtualDubMod 1.5.10.3 (build 2550/release)
Формат оригинала/Имя : Movie
Видео
Идентификатор : 0
Формат : MPEG-4 Visual
Профиль формата : Advanced [email protected]
Параметр BVOP формата : 2
Параметр QPel формата : Нет
Параметр GMC формата : Без точки перехода
Параметр матрицы формата : Выборочная
Идентификатор кодека : XVID
Идентификатор кодека/Подсказка : XviD
Продолжительность : 1 ч. 38 м.
Битрейт : 1660 Кбит/сек
Ширина : 720 пикселей
Высота : 304 пикселя
Соотношение сторон : 2,35:1
Частота кадров : 23,976 кадра/сек
Цветовое пространство : YUV
Субдискретизация насыщенности : 4:2:0
Битовая глубина : 8 бит
Тип развёртки : Прогрессивная
Метод сжатия : С потерями
Бит/(Пиксели*Кадры) : 0.316
Размер потока : 1,14 Гбайт (81%)
Библиотека кодирования : XviD 73
Аудио
Идентификатор : 1
Формат : AC-3
Формат/Информация : Audio Coding 3
Расширение режима : CM (complete main)
Параметр Endianness формата : Big
Идентификатор кодека : 2000
Продолжительность : 1 ч. 38 м.
Вид битрейта : Постоянный
Битрейт : 384 Кбит/сек
Каналы : 6 каналов
Расположение каналов : Front: L C R, Side: L R, LFE
Частота : 48,0 КГц
Битовая глубина : 16 бит
Метод сжатия : С потерями
Размер потока : 271 Мбайт (19%)
Выравнивание : Соединение по промежуткам
Продолжительность промежутка : 42 мс. (1,00 видеокадр)
Время предзагрузки промежутка : 512 мс.
-
-
Download / Скачать

Хотите скачать бесплатно? Зарегистрируйтесь на сайте (ссылка на регистрацию). Pirat.ca - самый быстрый торрент трекер в рунете!

Как скачивать  ·   Что такое торрент  ·   Рейтинг и ограничения

zmaksimz

Корсар

Пост 19-Май-2017 18:50 (спустя 2 дня 19 часов)

[Q] 

Фильм понравился.
Качество хорошее. Автору респект!!!
[Профиль]  [ЛС] 

mixanikk

Морской Волк

Пост 21-Май-2017 19:13 (спустя 2 дня)

[Q] 

Нормальный добротный фильм, не шедевр конечно, но на разок посмотреть очень даже ничего.
Мне понравилось
[Профиль]  [ЛС] 

fishman

Флибустьер

Пост 22-Май-2017 01:10 (спустя 5 часов)

[Q] 

Забираю. rum

_________________
|___|___|___|___|___|___|___|__|__
__|__|__|_Биться головой_|___|___|
|___|___|___|__сюда!!___|___|__|__
__|___|___|___|___|___|___|__|__
[Профиль]  [ЛС] 

Mosgas666

Шкипер

Пост 26-Май-2017 01:08 (спустя 3 дня)

[Q] 

Благодарю! Давно Хопкинса не видел.
[Профиль]  [ЛС] 

exelero07

Гроза морей

Пост 12-Мар-2018 13:25 (спустя 9 месяцев 17 дней)

[Q] 

Нормальный боевичок. Можно будет еще как-нибудь глянуть.
[Профиль]  [ЛС] 

lightmaster

Гроза морей

Пост 18-Ноя-2018 00:12 (спустя 8 месяцев 5 дней)

[Q] 

Любопытные комменты Раздающему респект!
[Профиль]  [ЛС] 

koljan-2008

Гроза морей

10

Пост 26-Ноя-2018 15:59 (спустя 8 дней)

[Q] 

Забираю в коллекцию, фильмец гляну на досуге, вроде норм по коментам Лови бочку

_________________
Нужно лишь верить в мечту. Искренне верить! И тогда всё получится!
[Профиль]  [ЛС] 

sztksales

Морской Волк

391

Пост 16-Дек-2018 14:51 (спустя 19 дней)

[Q] 

Хрень полная Отказать

_________________
[Профиль]  [ЛС] 
Показать сообщения:    
Ответить на тему

Текущее время: Сегодня 01:50

Часовой пояс: GMT + 4



Вы не можете начинать темы
Вы не можете отвечать на сообщения
Вы не можете редактировать свои сообщения
Вы не можете удалять свои сообщения
Вы не можете голосовать в опросах
Вы не можете прикреплять файлы к сообщениям
Вы не можете скачивать файлы

Майнать ▼