Всё могу / Absolutely Anything (Терри Джонс / Terry Jones) [2015 г., фантастика, комедия, BDRip, 1080p] Dub (IPTV) + Original (Eng) + Sub (Rus, Eng)

Ответить на тему
 
Автор
Сообщение

Пост 20-Янв-2016 00:47

[Q] 

TERMOS

Легенда

-Всё могу / Absolutely Anything
«Суперсила и никакой ответственности!»
-- Производство: США, Великобритания | Bill and Ben Productions, GFM films
Год выпуска: 2015 г.
Жанр: фантастика, комедия
Продолжительность: 01:25:30
Перевод: Профессиональный (полное дублирование) [IPTV]
Оригинальный аудиопоток: английский
Режиссер: Терри Джонс / Terry Jones-В ролях: Саймон Пегг, Кейт Бекинсейл, Санджив Бхаскар, Роб Риггл, Роберт Баферст, Эдди Иззард, Джоанна Ламли, Марианн Олдхэм, Эмма Пирсон, Мира Сайал-Роли дублировали: Константин Погодаев, Ирина Киреева, Константин Карасик, Пётр Иващенко, Денис Некрасов-Описание: Злобные инопланетяне, собираясь уничтожить Землю, дают ей последний шанс - наделяют учителя-неудачника Нила Кларка способностью исполнять любые желания. Он бы мог положить конец войнам или воскресить величайшие умы всех времен. Вот только как заманчиво: стать президентом США, соблазнить неприступную красотку или заставить заговорить собственного пса. Спасет ли Нил Кларк землю или устроит полный беспредел?
- -Качество видео: BDRip
Контейнер: MKV
Стандарт разрешения: 1080p
Видео кодек: H.264/AVC
Аудио кодек: AC3, DTS
Видео: 1920x804, 23.976 fps, ~11.1 Mbps avg
Аудио: Russian: 48 kHz, AC3, 3/2 (L,C,R,l,r) + LFE ch, ~384.00 kbps avg |Дубляж, IPTV|
Аудио #2: English: 48 kHz, DTS, 3/2 (L,C,R,l,r) + LFE ch, ~768.00 kbps avg
Cубтитры: Russian (forced), English
Код:
Format                      : Matroska
Format version              : Version 2
File size                   : 7.48 GiB
Duration                    : 1h 25mn
Overall bit rate            : 12.5 Mbps
Movie name                  : Absolutely Anything.2015.x264.BDRip.1080p
Encoded date                : UTC 2016-01-19 10:12:02
Writing application         : mkvmerge v7.9.0 ('Birds') 64bit
Writing library             : libebml v1.3.1 + libmatroska v1.4.2
Video
ID                          : 1
Format                      : AVC
Format/Info                 : Advanced Video Codec
Format profile              : [email protected]
Format settings, CABAC      : Yes
Format settings, ReFrames   : 5 frames
Codec ID                    : V_MPEG4/ISO/AVC
Duration                    : 1h 25mn
Bit rate                    : 11.1 Mbps
Width                       : 1 920 pixels
Height                      : 804 pixels
Display aspect ratio        : 2.40:1
Frame rate mode             : Constant
Frame rate                  : 23.976 fps
Color space                 : YUV
Chroma subsampling          : 4:2:0
Bit depth                   : 8 bits
Scan type                   : Progressive
Bits/(Pixel*Frame)          : 0.300
Stream size                 : 6.64 GiB (89%)
Writing library             : x264 core 148 r2638 7599210
Encoding settings           : cabac=1 / ref=5 / deblock=1:-3:-3 / analyse=0x3:0x133 / me=umh / subme=10 / psy=1 / psy_rd=1.00:0.00 / mixed_ref=1 / me_range=32 / chroma_me=1 / trellis=2 / 8x8dct=1 / cqm=0 / deadzone=21,11 / fast_pskip=0 / chroma_qp_offset=-2 / threads=6 / lookahead_threads=1 / sliced_threads=0 / nr=0 / decimate=0 / interlaced=0 / bluray_compat=0 / constrained_intra=0 / bframes=9 / b_pyramid=2 / b_adapt=2 / b_bias=0 / direct=3 / weightb=1 / open_gop=0 / weightp=2 / keyint=250 / keyint_min=24 / scenecut=40 / intra_refresh=0 / rc_lookahead=60 / rc=crf / mbtree=0 / crf=17.8 / qcomp=0.65 / qpmin=0 / qpmax=69 / qpstep=4 / vbv_maxrate=62500 / vbv_bufsize=78125 / crf_max=0.0 / nal_hrd=none / filler=0 / ip_ratio=1.23 / pb_ratio=1.15 / aq=3:0.68 / zones=8341,9302,crf=16/9665,11839,crf=15.5/18696,20418,crf=16/50956,51366,crf=16/58409,60167,crf=16/61232,61584,crf=15.5/81229,81353,crf=16/93458,93518,crf=16/100928,102347,crf=16/113222,113362,crf=16/113695,114507,crf=15.5/117114,123000,crf=22
Language                    : English
Default                     : Yes
Forced                      : No
Audio #1
ID                          : 2
Format                      : AC-3
Format/Info                 : Audio Coding 3
Mode extension              : CM (complete main)
Format settings, Endianness : Big
Codec ID                    : A_AC3
Duration                    : 1h 25mn
Bit rate mode               : Constant
Bit rate                    : 384 Kbps
Channel(s)                  : 6 channels
Channel positions           : Front: L C R, Side: L R, LFE
Sampling rate               : 48.0 KHz
Bit depth                   : 16 bits
Compression mode            : Lossy
Stream size                 : 235 MiB (3%)
Title                       : Дублированный (IPTV)
Language                    : Russian
Default                     : Yes
Forced                      : No
Audio #2
ID                          : 3
Format                      : DTS
Format/Info                 : Digital Theater Systems
Mode                        : 16
Format settings, Endianness : Big
Codec ID                    : A_DTS
Duration                    : 1h 25mn
Bit rate mode               : Constant
Bit rate                    : 768 Kbps
Channel(s)                  : 6 channels
Channel positions           : Front: L C R, Side: L R, LFE
Sampling rate               : 48.0 KHz
Bit depth                   : 24 bits
Compression mode            : Lossy
Stream size                 : 470 MiB (6%)
Language                    : English
Default                     : No
Forced                      : No
Text #1
ID                          : 4
Format                      : UTF-8
Codec ID                    : S_TEXT/UTF8
Codec ID/Info               : UTF-8 Plain Text
Title                       : Forced
Language                    : Russian
Default                     : Yes
Forced                      : No
Text #2
ID                          : 5
Format                      : UTF-8
Codec ID                    : S_TEXT/UTF8
Codec ID/Info               : UTF-8 Plain Text
Title                       : Forced
Language                    : Russian
Default                     : No
Forced                      : No
Text #3
ID                          : 6
Format                      : UTF-8
Codec ID                    : S_TEXT/UTF8
Codec ID/Info               : UTF-8 Plain Text
Language                    : English
Default                     : No
Forced                      : No
Menu
00:00:00.000                : en:Chapter 01
00:03:10.982                : en:Chapter 02
00:08:13.826                : en:Chapter 03
00:14:41.505                : en:Chapter 04
00:32:59.102                : en:Chapter 05
00:40:15.579                : en:Chapter 06
00:53:42.886                : en:Chapter 07
01:02:15.815                : en:Chapter 08
01:06:17.682                : en:Chapter 09
01:11:50.723                : en:Chapter 10
01:14:56.033                : en:Chapter 11
01:21:25.755                : en:Chapter 12
Download / Скачать

Хотите скачать бесплатно? Зарегистрируйтесь на сайте (ссылка на регистрацию). Pirat.ca - самый быстрый торрент трекер в рунете!

Как скачивать  ·   Что такое торрент  ·   Рейтинг и ограничения

Пост 20-Янв-2016 07:56 (спустя 7 часов)

Топик был перенесен из форума Зарубежное Кино (Трюм) в форум Новинки (BD/HDTV/DVD)
aleksey99
 

polyk

Флибустьер

Пост 22-Янв-2016 22:59 (спустя 2 дня 22 часа)

[Q] 

кино супер!!! давно так не смеялся!!! Всем качать!!!
[Профиль]  [ЛС] 

bioclown

Корсар

Пост 23-Янв-2016 16:43 (спустя 17 часов)

[Q] 

Поглядим Спасибо!!!
[Профиль]  [ЛС] 

AlexYstasu

Морской Волк

Пост 24-Янв-2016 03:59 (спустя 11 часов)

[Q] 

Неплохая комедия посмотреть компанией, но на один раз.

_________________
Core I5, R9 270x. 8gb, asus z77
[Профиль]  [ЛС] 

inKKKognito

Лоцман

Пост 27-Янв-2016 00:20 (спустя 2 дня 20 часов)

[Q] 

Есть несколько смешных моментов. Не сказать, что жалею о потраченном времени, но можно было и не смотреть... bm bm
[Профиль]  [ЛС] 

ГИППАРРД

Корсар

2

Пост 05-Фев-2016 19:25 (спустя 9 дней)

[Q] 

Фильма нет сплошной обман что обманывать интрнет крупную аудиторию и Арбитражный Суд!!!!!!!???????????
bc
[Профиль]  [ЛС] 

s_s

Гроза морей

Пост 05-Фев-2016 21:33 (спустя 2 часа 7 минут)

[Q] 

Также согласен - можно было и не смотреть... На один раз в общем, не вспомню.

_________________
в себе самом добра со злом
[Профиль]  [ЛС] 

ger

Шкипер

Пост 06-Мар-2016 00:18 (спустя 1 месяц)

[Q] 

не плохая комедия, но и не шедевр.
пошлая, по-моему, всего одна шутка.
В общем, советую.
[Профиль]  [ЛС] 

zachitnik

Шкипер

Пост 09-Мар-2016 14:08 (спустя 3 дня)

[Q] 

Посмотрю обязательно. Спасибо!
[Профиль]  [ЛС] 

Пост 26-Мар-2016 14:20 (спустя 17 дней)

Топик был перенесен из форума Новинки (BD/HDTV/DVD) в форум HD (Зарубежное Кино)
aleksey99
 

Ishtori

Флибустьер

Пост 22-Июл-2018 19:26 (спустя 2 года 4 месяца)

[Q] 

спасибо за раздачу! Лови бочку
[Профиль]  [ЛС] 

koljan-2008

Гроза морей

10

Пост 25-Ноя-2018 18:41 (спустя 4 месяца 2 дня)

[Q] 

Посмотрим, что там придумали. Лови бочку

_________________
Нужно лишь верить в мечту. Искренне верить! И тогда всё получится!
[Профиль]  [ЛС] 

koljan-2008

Гроза морей

10

Пост 26-Ноя-2018 16:54 (спустя 22 часа)

[Q] 

А кто нибудь появится на раздаче? А то фильм охота посмотреть, состояние Загрузка, а скорости вообще нет!

_________________
Нужно лишь верить в мечту. Искренне верить! И тогда всё получится!
[Профиль]  [ЛС] 
Показать сообщения:    
Ответить на тему

Текущее время: Сегодня 21:23

Часовой пояс: GMT + 4



Вы не можете начинать темы
Вы не можете отвечать на сообщения
Вы не можете редактировать свои сообщения
Вы не можете удалять свои сообщения
Вы не можете голосовать в опросах
Вы не можете прикреплять файлы к сообщениям
Вы не можете скачивать файлы

Майнать ▼