Наша Russia: Александр Родионович Бородач (Петр Буслов) [2011 г., юмор, шоу, SATRip]

Ответить на тему
 
Автор
Сообщение

Пост 21-Ноя-2011 15:35

[Q] 

cepera5555

Штурман

Наша Russia: Александр Родионович Бородач
Год выпуска: 2011
Жанр: юмор, шоу
Продолжительность: 01:13:42
Режиссер: Петр Буслов
В ролях: Михаил Галустян
Описание: Рязань: Александр Родионович Бородач (Михаил Галустян) — охранник, постоянно меняет место работ. Имеет речевой дефект, связанный с произношением буквы «р». Поэтому почти всегда в фамилии сильно произносится «р» — Борродач. Бородач — вор, лжец, дебошир, алкоголик и наркоман, всё время попадающий в криминальные истории. Имеет кучу друзей, также работающих в разных местах. Не может проработать ни в одном месте более трех дней. Постоянно пользуется служебным положением и попадает в идиотские ситуации. Бородач имеет незаконченное среднее образование, о чем он сам заявил в одной из серий 5 сезона, в которой собирался на вечер встреч одноклассников. Почти всегда, когда милиционеры рассказывают про ущерб который нанёс Бородач тому или иному заведению, он отвечает «Это прискорбно» или «Ни хера себе, я не в курсе, ребята», или «Не отрицаю». Часто употребляет слово «хер» и производные от него. А допрашивающие его милиционеры сильно обижаются, когда их называют «мусорами». Скетч заканчивается тем что Бородача куда-то уводят при избиениях которые используются на допросе. На вопрос милиционеров, что же с ним сделать, он всегда отвечает: «Понять и простить».
Все хохмы 5-го сезона от Бородача!
Источник/Качество: SATRip
Формат: AVI
Видео кодек: DivX
Аудио кодек: MP3
Видео: DivX, 1300 Кбит/с, 704х384
Аудио: Русский,MP3, 2 ch, 128 Кбит/с
Формат : AVI
Формат/Информация : Audio Video Interleave
Размер файла : 394 Мбайт
Продолжительность : 38 м.
Общий поток : 1437 Кбит/сек
Программа кодирования : VirtualDubMod 1.5.10.2 (build 2540/release)
Библиотека кодирования : VirtualDubMod build 2540/release
Видео
Идентификатор : 0
Формат : MPEG-4 Visual
Параметр BVOP формата : 1
Параметр QPel формата : Нет
Параметр GMC формата : Без точки перехода
Параметр матрицы формата : Default (H.263)
Режим смешивания : Сжатый битовый поток
Идентификатор кодека : DX50
Идентификатор кодека/Подсказка : DivX 5
Продолжительность : 38 м.
Битрейт : 1300 Кбит/сек
Ширина : 704 пикс.
Высота : 384 пикс.
Соотношение сторон : 16:9
Частота кадров : 25,000 кадр/сек
Цветовое пространство : YUV
Подвыборка цветности : 4:2:0
Битовая глубина : 8 бит
Тип развёртки : Прогрессивная
Метод сжатия : С потерями
Бит/(Пиксели*Кадры) : 0.192
Размер потока : 357 Мбайт (90%)
Библиотека кодирования : DivX 6.8.5 (UTC 2009-08-20)
Аудио
Идентификатор : 1
Формат : MPEG Audio
Версия формата : Version 1
Профиль формата : Layer 3
Режим : Joint stereo
Расширение режима : MS Stereo
Идентификатор кодека : 55
Идентификатор кодека/Подсказка : MP3
Продолжительность : 38 м.
Вид битрейта : Постоянный
Битрейт : 128 Кбит/сек
Каналы : 2 канала
Частота : 48,0 КГц
Метод сжатия : С потерями
Задержка видео : 8 мс.
Размер потока : 35,1 Мбайт (9%)
Выравнивание : Разделение по промежуткам
Продолжительность промежутка : 40 мс. (1,00 видеокадр)
Время предзагрузки промежутка : 500 ms



Download / Скачать

Хотите скачать бесплатно? Зарегистрируйтесь на сайте (ссылка на регистрацию). Pirat.ca - самый быстрый торрент трекер в рунете!

Как скачивать  ·   Что такое торрент  ·   Рейтинг и ограничения



Последний раз редактировалось: cepera5555 (2011-11-21 18:47), всего редактировалось 1 раз

bruder

Флибустьер

Пост 23-Ноя-2011 17:48 (спустя 2 дня 2 часа)

[Q] 

Спасибо, поржём...

_________________
[Профиль]  [ЛС] 

molot

Штурман

Пост 25-Ноя-2011 01:47 (спустя 1 день 7 часов)

[Q] 

sps
[Профиль]  [ЛС] 

boingboing2

Шкипер

Пост 30-Янв-2012 20:00 (спустя 2 месяца 5 дней)

[Q] 

спасибо,качну
[Профиль]  [ЛС] 

kstzxxx

Корсар

1657

Пост 14-Мар-2012 22:35 (спустя 1 месяц 15 дней)

[Q] 


_________________
[Профиль]  [ЛС] 

zmaksimz

Корсар

Пост 29-Апр-2012 21:34 (спустя 1 месяц 14 дней)

[Q] 

Спасибки)))
[Профиль]  [ЛС] 

Mag_

Лоцман

Пост 19-Июл-2012 20:42 (спустя 2 месяца 19 дней)

[Q] 

СупеРРР!
[Профиль]  [ЛС] 

vit70

Лоцман

Пост 23-Июл-2012 23:36 (спустя 4 дня)

[Q] 

Класс! Супер!
[Профиль]  [ЛС] 

vazonov11

Пост 21-Дек-2012 12:55 (спустя 4 месяца 28 дней)

[Q] 

Галустян в новом амплуа бесподобен.
[Профиль]  [ЛС] 

Stal26

Корсар

Пост 23-Сен-2014 00:20 (спустя 1 год 9 месяцев)

[Q] 

Всем качать!!! bj

_________________
\~/
[Профиль]  [ЛС] 

kolegy1

Морской Волк

Пост 07-Янв-2015 18:33 (спустя 3 месяца 13 дней)

[Q] 

Супер! Лучшее из НР

_________________
Я знаю только то, что ничего не знаю, но другие не знают и этого.
[Профиль]  [ЛС] 

iap

Корсар

Пост 04-Апр-2016 22:49 (спустя 1 год 2 месяца)

[Q] 

Спасибо, замечательно!
[Профиль]  [ЛС] 

disko

Корсар

134

Пост 28-Ноя-2018 06:55 (спустя 2 года 7 месяцев)

[Q] 

Спасибо! Это последний сезон интересно или есть поновее?
[Профиль]  [ЛС] 
Показать сообщения:    
Ответить на тему

Текущее время: Сегодня 16:00

Часовой пояс: GMT + 4



Вы не можете начинать темы
Вы не можете отвечать на сообщения
Вы не можете редактировать свои сообщения
Вы не можете удалять свои сообщения
Вы не можете голосовать в опросах
Вы не можете прикреплять файлы к сообщениям
Вы не можете скачивать файлы

Майнать ▼