Ферма / The Farm (Ганс Стьернсвард / Hans Stjernswärd) [2018 г., ужасы, WEB-DLRip, 720p] MVO (Синема УС)

Ответить на тему
 
Автор
Сообщение

Пост 18-Ноя-2018 11:21

[Q] 

tank69

Флибустьер

-Ферма / The Farm-- Производство: США
Год выпуска: 2018 г.
Жанр: ужасы
Продолжительность: 01:20:00
Мировая премьера: 20 апреля 2018
Перевод: Профессиональный (многоголосый, закадровый) [Синема УС]
Режиссёр: Ганс Стьернсвард / Hans Stjernswärd-В ролях: Нора Есаян, Алек Гейлорд, Кен Волок, Роб Тисдейл, Келли Мис, Дэвид Эйр, Джули Браун, Гаэль Кэррион, Иола Кора, Сандра Круз.-Описание: Молодая пара, проезжая очередной городок, решила заскочить в закусочную поесть бургеров и отдохнуть. В итоге их поездка обернулась кошмаром. Их похитили неизвестные, посадили в клетки и обращаются, как со скотом, в прямом смысле этого слова.-
Качество видео: WEB-DLRip
Контейнер: MKV
Стандарт разрешения: 720p
Видео кодек: MPEG4 AVC
Аудио кодек: AC3
Видео: AVC, 1280x418, 23.976 fps, 5500 Kbps
Аудио: Rus: AC-3, 48.0 KHz, 2 ch, 384 Kbps
Cубтитры: отсутствуют
Общее
Уникальный идентификатор : 232124853293721753450709007934974074204 (0xAEA19EDE4C1A71949DEF1D9D26781D5C)
Полное имя : C:\Users\vigor\Downloads\The.Farm.2O18.P.WEB-DL.72Op_KOSHARA.mkv
Формат : Matroska
Версия формата : Version 2
Размер файла : 3,07 Гбайт
Продолжительность : 1 ч. 22 м.
Режим общего битрейта : Переменный
Общий поток : 5317 Кбит/сек
Дата кодирования : UTC 2018-11-17 15:42:47
Программа кодирования : mkvmerge v8.3.0 ('Over the Horizon') 64bit
Библиотека кодирования : libebml v1.3.1 + libmatroska v1.4.2
Видео
Идентификатор : 1
Формат : AVC
Формат/Информация : Advanced Video Codec
Профиль формата : [email protected]
Настройки формата : CABAC / 4 Ref Frames
Параметр CABAC формата : Да
Параметр RefFrames формата : 4 кадра
Идентификатор кодека : V_MPEG4/ISO/AVC
Продолжительность : 1 ч. 22 м.
Вид битрейта : Переменный
Битрейт : 4931 Кбит/сек
Максимальный битрейт : 5500 Кбит/сек
Ширина : 1280 пикселей
Высота : 418 пикселей
Соотношение сторон : 3,062
Режим частоты кадров : Постоянный
Частота кадров : 23,976 (24000/1001) кадра/сек
Стандарт вещания : Component
Цветовое пространство : YUV
Субдискретизация насыщенности : 4:2:0
Битовая глубина : 8 бит
Тип развёртки : Прогрессивная
Бит/(Пиксели*Кадры) : 0.384
Размер потока : 2,85 Гбайт (93%)
Default : Да
Forced : Нет
Цветовой диапазон : Limited
Основные цвета : BT.709
Характеристики трансфера : BT.709
Коэффициенты матрицы : BT.709
Аудио
Идентификатор : 2
Формат : AC-3
Формат/Информация : Audio Coding 3
Идентификатор кодека : A_AC3
Продолжительность : 1 ч. 22 м.
Вид битрейта : Постоянный
Битрейт : 384 Кбит/сек
Каналы : 2 канала
Расположение каналов : Front: L R
Частота : 48,0 КГц
Частота кадров : 31,250 кадров/сек (1536 SPF)
Битовая глубина : 16 бит
Метод сжатия : С потерями
Размер потока : 227 Мбайт (7%)
ServiceKind/String : Complete Main
Default : Да
Forced : Нет
ПРИСУТСТВУЕТ РЕКЛАМА
Download / Скачать

Хотите скачать бесплатно? Зарегистрируйтесь на сайте (ссылка на регистрацию). Pirat.ca - самый быстрый торрент трекер в рунете!

Как скачивать  ·   Что такое торрент  ·   Рейтинг и ограничения



Последний раз редактировалось: tank69 (2018-11-19 13:23), всего редактировалось 1 раз

tank69 ®

Флибустьер

1671

Пост 18-Ноя-2018 11:25 (спустя 4 минуты)

[Q] 

Весьма нетривиальный фильм ужасов...и без хэппи энда :(
Смотрел без использования перемотки )
Приятного просмотра.
[Профиль]  [ЛС] 

Кристина119

Гроза морей

Пост 18-Ноя-2018 12:01 (спустя 36 минут)

[Q] 

По моему Трейлер не тот...
[Профиль]  [ЛС] 

igorexa1111

Флибустьер

Пост 18-Ноя-2018 12:25 (спустя 23 минуты)

[Q] 

от это надо зазырить
[Профиль]  [ЛС] 

tank69 ®

Флибустьер

1671

Пост 18-Ноя-2018 13:00 (спустя 35 минут)

[Q] 

Кристина119,
Спасибо за бдительность, уже попрорсил модератора открыть раздачу для перезаливки трейлера на соответствующий.
P.S. Залит правильный трейлер фильма.... приятного просмотра)
[Профиль]  [ЛС] 

BearArtyom

Штурман

Пост 18-Ноя-2018 13:38 (спустя 37 минут)

[Q] 

Фильм сняли ВЕГАНЫ!!!
[Профиль]  [ЛС] 

datt

Пост 18-Ноя-2018 14:13 (спустя 34 минуты)

[Q] 

832050Фильм сняли ВЕГАНЫ!!!
+1
Добавлено спустя 1 минута 15 секунд:
киношка по дольчету LOL
видимо ограничение по возрасту 21+ :/
...кстати ходят слухи, когда жрать было нечего в древние времена, homo sapiens слопали всех неандертальцев

_________________
Ненависть нужно заслужить
[Профиль]  [ЛС] 

feldorius

Корсар

Пост 25-Ноя-2018 22:50 (спустя 7 дней)

[Q] 

Вот это трэш ))
[Профиль]  [ЛС] 

avelinio

Штурман

Пост 27-Ноя-2018 20:27 (спустя 1 день 21 час)

[Q] 

отборный кал - всем смотреть... чтоб мне не обидно было)))
[Профиль]  [ЛС] 

ntvsx

Морской Волк

Пост 02-Дек-2018 10:09 (спустя 4 дня)

[Q] 

Отличный фильмец, спасибо. Давно не получал такого удовольствия от просмотра ужасов.
[Профиль]  [ЛС] 

BearArtyom

Штурман

Пост 02-Дек-2018 13:06 (спустя 2 часа 57 минут)

[Q] 

832784Отличный фильмец, спасибо. Давно не получал такого удовольствия от просмотра ужасов.
А почему ужасы? Показано обычное отношение людей к животным. Просто местами поменяли. Когда люди едят животных, ужасом это не называют. Именно это и показано. Никакого ужаса, просто документальный фильм.
[Профиль]  [ЛС] 

ntvsx

Морской Волк

Пост 02-Дек-2018 15:37 (спустя 2 часа 30 минут)

[Q] 

BearArtyom, Можно и так интерпретировать, тоже такая же мысль посетила во время просмотра, но все же ИМХО это именно фильм ужасов, причем ИМХО отличный фильм ужасов.
[Профиль]  [ЛС] 
Показать сообщения:    
Ответить на тему

Текущее время: Сегодня 22:42

Часовой пояс: GMT + 4



Вы не можете начинать темы
Вы не можете отвечать на сообщения
Вы не можете редактировать свои сообщения
Вы не можете удалять свои сообщения
Вы не можете голосовать в опросах
Вы не можете прикреплять файлы к сообщениям
Вы не можете скачивать файлы

Майнать ▼