Мара. Пожиратель снов / Mara (Клайв Тонг / Clive Tonge) [2018 г., ужасы, триллер, криминал, HDRip] Dub [iTunes]

Ответить на тему
 
Автор
Сообщение

Пост 19-Ноя-2018 17:02

[Q] 

ara1205

-Мара. Пожиратель снов / Mara-- Производство: Великобритания, США
Год выпуска: 2018 г.
Жанр: ужасы, триллер, криминал
Продолжительность: 01:39:03
Мировая премьера: 22 августа 2018
Российская премьера: 6 сентября 2018
Перевод: Профессиональный (полное дублирование) [iTunes]-Режиссёр: Клайв Тонг / Clive Tonge-В ролях: Ольга Куриленко, Хавьер Ботет, Митч Икинс, Лэнс Э. Николс, Рози Феллнер, Mackenzie Imsand, Дэнди Баррет, Крэйг Конуэй, Мелисса Болона, Кэти МакГроу-Описание: Кейт Фуллер приписана к расследованию убийства мужчины, которого, как считает полиция, задушила во сне собственная жена. В качестве свидетеля проходит восьмилетняя дочь убитого, Софи. Все дальше углубляясь в это дело, Кейт узнает о существовании древнего демона, убивающего своих жертв во сне. Она испытывает те же чудовищные симптомы и кошмары, поэтому сон становится для неё опасным.- -Качество видео: HDRip
Контейнер: AVI
Видео кодек: XviD
Аудио кодек: AC3
Видео: 720x304, 23.976 fps, 1531 kbps avg, 0.292 bit/pixel
Аудио: 48 kHz, AC3, 2 ch, ~192.00 kbps avg
Cубтитры: отсутствуют-
Общее
Полное имя : C:\Users\Admin\Pictures\сегодня\Мара. Пожиратель снов\Mara.2018.HDRip.[pirat.ca].avi
Формат : AVI
Формат/Информация : Audio Video Interleave
Размер файла : 1,47 Гбайт
Продолжительность : 1 ч. 39 м.
Общий поток : 2121 Кбит/сек
Название фильма : Mara.2018.HDRip.[pirat.ca]
Программа кодирования : VirtualDubMod 1.5.10.2 (build 2542/release)
Видео
Идентификатор : 0
Формат : MPEG-4 Visual
Профиль формата : Advanced [email protected]
Параметр BVOP формата : 2
Параметр QPel формата : Нет
Параметр GMC формата : Без точки перехода
Параметр матрицы формата : Default (H.263)
Режим смешивания : Сжатый битовый поток
Идентификатор кодека : XVID
Идентификатор кодека/Подсказка : XviD
Продолжительность : 1 ч. 39 м.
Битрейт : 1531 Кбит/сек
Ширина : 720 пикселей
Высота : 304 пикселя
Соотношение сторон : 2,35:1
Частота кадров : 23,976 кадра/сек
Цветовое пространство : YUV
Субдискретизация насыщенности : 4:2:0
Битовая глубина : 8 бит
Тип развёртки : Прогрессивная
Метод сжатия : С потерями
Бит/(Пиксели*Кадры) : 0.292
Размер потока : 1,06 Гбайт (72%)
Библиотека кодирования : XviD 67
Аудио #1
Идентификатор : 1
Формат : AC-3
Формат/Информация : Audio Coding 3
Расширение режима : CM (complete main)
Параметр Endianness формата : Big
Идентификатор кодека : 2000
Продолжительность : 1 ч. 38 м.
Вид битрейта : Постоянный
Битрейт : 384 Кбит/сек
Каналы : 6 каналов
Расположение каналов : Front: L C R, Side: L R, LFE
Частота : 48,0 КГц
Битовая глубина : 16 бит
Метод сжатия : С потерями
Размер потока : 272 Мбайт (18%)
Выравнивание : Разделение по промежуткам
Продолжительность промежутка : 42 мс. (1,00 видеокадр)
Время предзагрузки промежутка : 500 мс.
Заголовок : Russian iTunes
-
-
Download / Скачать

Хотите скачать бесплатно? Зарегистрируйтесь на сайте (ссылка на регистрацию). Pirat.ca - самый быстрый торрент трекер в рунете!

Как скачивать  ·   Что такое торрент  ·   Рейтинг и ограничения

Саня 525

Морской Волк

Пост 19-Ноя-2018 18:12 (спустя 1 час 10 минут)

[Q] 

Посмотрим! Спасибо!!! Автору респект!!!

_________________
Не падайте в обморок, но мы все под колпаком у Мюллера.
[Профиль]  [ЛС] 

Алeкс

Корсар

95

Пост 19-Ноя-2018 23:40 (спустя 5 часов)

[Q] 

Спасибо, посмотрим Автору респект!!!
[Профиль]  [ЛС] 

wyaticsh

Штурман

Пост 20-Ноя-2018 18:04 (спустя 18 часов)

[Q] 

Спасибо. Куриленко - замануха... Глянем.
[Профиль]  [ЛС] 

ntvsx

Морской Волк

Пост 02-Дек-2018 10:11 (спустя 11 дней)

[Q] 

Слабенько, но глянуть можно. За раздачу спасибо.
[Профиль]  [ЛС] 

kaktus

Корсар

Пост 04-Дек-2018 01:16 (спустя 1 день 15 часов)

[Q] 

Фильм такая PiRat.ca - Forever!. я просто в шоке
[Профиль]  [ЛС] 
Показать сообщения:    
Ответить на тему

Текущее время: Сегодня 01:54

Часовой пояс: GMT + 4



Вы не можете начинать темы
Вы не можете отвечать на сообщения
Вы не можете редактировать свои сообщения
Вы не можете удалять свои сообщения
Вы не можете голосовать в опросах
Вы не можете прикреплять файлы к сообщениям
Вы не можете скачивать файлы

Майнать ▼