Тайна дома с часами / The House with a Clock in Its Walls (Элай Рот) [2018 г., ужасы, фантастика, фэнтези, триллер, комедия, детектив, семейный, WEB-DLRip] Dub

Ответить на тему
 
Автор
Сообщение

Пост 22-Ноя-2018 23:57

[Q] 

Aleks44

Гроза морей

-Тайна дома с часами / The House with a Clock in Its Walls-- Производство: США, Индия, Канада
Год выпуска: 2018 г.
Жанр: ужасы, фантастика, фэнтези, триллер, комедия, детектив, семейный
Продолжительность: 01:45:51
Мировая премьера: 19 сентября 2018
Российская премьера: 27 сентября 2018
Дата выхода Blu-Ray: 22 ноября 2018
Перевод: Профессиональный (дублирование) [Чистый звук]
Режиссёр: Элай Рот-В ролях: Джек Блэк, Кейт Бланшетт, Оуэн Ваккаро, Кайл МакЛоклен, Рене Голдсберри, Коллин Кэмп, Санни Сулджик, Лоренца Иззо, Брэкстон Бьеркен, Ванесса Энн Уильямс-Описание: Первое, что услышал Льюис, ступив на порог загадочного особняка своего дяди, - это тиканье часов, раздававшееся из древних стен. Он окунается в мир магии и колдовства, о существовании которого даже не подозревал. Здесь оживают картины, обитают невероятные создания, а сердце дома хранит тайну времени.-
Качество видео: WEB-DLRip
Контейнер: AVI
Видео кодек: XviD
Аудио кодек: AC3
Видео: 720x304 (2.37:1), 23.976 fps, XviD build 50; ~1582 kbps; 0.30 bit/pixel
Аудио: 48 kHz, AC3 Dolby Digital 2/0 (L,R) ch, ~384 kbps
Cубтитры: отсутствуют
General
Complete name : D:\Скаченное\The.House.with.a.Clock.in.Its.Walls.2O18.D.WEB-DLRip.14OOMB.avi
Format : AVI
Format/Info : Audio Video Interleave
File size : 1.46 GiB
Duration : 1 h 45 min
Overall bit rate : 1 976 kb/s
Writing application : VirtualDubMod 1.5.10.2 (build 2540/release)
Writing library : VirtualDubMod build 2540/release
Video
ID : 0
Format : MPEG-4 Visual
Format profile : Advanced [email protected]
Format settings, BVOP : 2
Format settings, QPel : No
Format settings, GMC : No warppoints
Format settings, Matrix : Custom
Codec ID : XVID
Codec ID/Hint : XviD
Duration : 1 h 45 min
Bit rate : 1 583 kb/s
Width : 720 pixels
Height : 304 pixels
Display aspect ratio : 2.35:1
Frame rate : 23.976 (24000/1001) FPS
Color space : YUV
Chroma subsampling : 4:2:0
Bit depth : 8 bits
Scan type : Progressive
Compression mode : Lossy
Bits/(Pixel*Frame) : 0.302
Stream size : 1.17 GiB (80%)
Writing library : XviD 1.2.1 (UTC 2008-12-04)
Audio
ID : 1
Format : AC-3
Format/Info : Audio Coding 3
Format settings, Endianness : Big
Codec ID : 2000
Duration : 1 h 45 min
Bit rate mode : Constant
Bit rate : 384 kb/s
Channel(s) : 2 channels
Channel positions : Front: L R
Sampling rate : 48.0 kHz
Frame rate : 31.250 FPS (1536 SPF)
Bit depth : 16 bits
Compression mode : Lossy
Stream size : 291 MiB (19%)
Alignment : Split accross interleaves
Interleave, duration : 42 ms (1.00 video frame)
Interleave, preload duration : 500 ms
Service kind : Complete Main
Download / Скачать

Хотите скачать бесплатно? Зарегистрируйтесь на сайте (ссылка на регистрацию). Pirat.ca - самый быстрый торрент трекер в рунете!

Как скачивать  ·   Что такое торрент  ·   Рейтинг и ограничения



Последний раз редактировалось: Aleks44 (2018-11-24 17:43), всего редактировалось 1 раз

jumpersky

Легенда

Пост 23-Ноя-2018 14:02 (спустя 14 часов)

[Q] 

реклама задолбала... bu
[Профиль]  [ЛС] 

koljan-2008

Гроза морей

10

Пост 25-Ноя-2018 14:50 (спустя 2 дня)

[Q] 

заинтересовало описание, качаю, буду смотреть. Позже отпишусь Лови бочку

_________________
Нужно лишь верить в мечту. Искренне верить! И тогда всё получится!
[Профиль]  [ЛС] 

bo4kov

Гроза морей

573

Пост 26-Ноя-2018 00:37 (спустя 9 часов)

[Q] 

Интересный фильм.

_________________
[Профиль]  [ЛС] 

baltimor30

Корсар

Пост 26-Ноя-2018 21:17 (спустя 20 часов)

[Q] 

Приятный фильм, но реклама за....ла
[Профиль]  [ЛС] 

Urlhtml

Корсар

Пост 02-Дек-2018 14:23 (спустя 5 дней)

[Q] 

Спасибо, буду смотреть. Лови бочку
[Профиль]  [ЛС] 

alersander

Корсар

Пост 02-Дек-2018 16:54 (спустя 2 часа 31 минута)

[Q] 

посмотрим Лови бочку
[Профиль]  [ЛС] 

jism

Корсар

107

Пост 02-Дек-2018 20:45 (спустя 3 часа)

[Q] 

Извините, а где здесь "720p" ? Разрешение же "Видео: 720x304"

_________________
- SenileDementia production -
[Профиль]  [ЛС] 

Андря

8658

Пост 03-Дек-2018 02:32 (спустя 5 часов)

[Q] 

jism, вы правы, его здесь нет. Модератор не слажал...

_________________
Като Тешекика
[Профиль]  [ЛС] 

bull271174New

Штурман

Пост 05-Дек-2018 06:36 (спустя 2 дня 4 часа)

[Q] 

Фильм на один раз
[Профиль]  [ЛС] 
Показать сообщения:    
Ответить на тему

Текущее время: Сегодня 03:52

Часовой пояс: GMT + 4



Вы не можете начинать темы
Вы не можете отвечать на сообщения
Вы не можете редактировать свои сообщения
Вы не можете удалять свои сообщения
Вы не можете голосовать в опросах
Вы не можете прикреплять файлы к сообщениям
Вы не можете скачивать файлы

Майнать ▼