Монстры на каникулах 3: Море зовёт / Hotel Transylvania 3: Summer Vacation (Генндий Тартаковский / Genndy Tartakovsky) [2018 г., мультфильм, фэнтези, комедия, приключения, семейный, WEB-DL, 1080p] Dub Sub (Rus)

Ответить на тему
 
Автор
Сообщение

Пост 25-Сен-2018 10:28

[Q] 

AlexDjas

Гроза морей

--Монстры на каникулах 3: Море зовёт / Hotel Transylvania 3: Summer Vacation«Любишь ужасы? Проведи отпуск с семьёй!»-- Производство: США
Режиссёр: Генндий Тартаковский / Genndy Tartakovsky
Жанр: мультфильм, фэнтези, комедия, приключения, семейный
Год выпуска: 2018 г.
Продолжительность: 01:37:20
Мировая премьера: 13 июня 2018
Российская премьера: 12 июля 2018, «WDSSPR»
Перевод: Профессиональный (полное дублирование) [iTunes]
Роли озвучивали: Адам Сэндлер (Сергей Бурунов), Энди Сэмберг (Антон Эльдаров), Селена Гомес (Полина Гагарина), Кевин Джеймс (Владимир Антоник), Фрэн Дрешер (Ирина Савина), Стив Бушеми (Дмитрий Полонский), Молли Шеннон (Елена Шульман), Дэвид Спейд (Алексей Иващенко), Кигэн-Майкл Ки (Алексей Колган), Джим Гэффиган (Борис Шувалов)--Описание: На этот раз Дракула вместе со своими друзьями отправляется в круиз на шикарном лайнере. Развлечения там на любой вкус: от монстробаскетбола и экзотических экскурсий, до лунных ванн. Неожиданно Дракула влюбляется в капитана корабля — загадочную и прекрасную Эрику, и его дочка Мэвис понимает, что поездка может превратиться в кошмар: ведь Эрика хранит ужасный секрет, который ставит под угрозу существование всех монстров!--
Качество видео: WEB-DL
Контейнер: MKV
Стандарт разрешения: 1080p
Видео кодек: MPEG4 AVC
Аудио кодек: AC3
Видео: H.264/AVC, 1920x1032, ~5119 kbps, 23.976 fps
Аудио: 48 kHz, AC3 Dolby Digital, 3/2 (L,C,R,l,r) + LFE ch, ~384 kbps
Cубтитры: русские (forced, full)
Общее
Уникальный идентификатор : 20051909416504284469945784444725624196 (0xF15DB769E91D678151DC866E1A9FD84)
Полное имя : D:\pirat\Hotel_Transylvania_3_Summer_Vacation.mkv
Формат : Matroska
Версия формата : Version 4
Размер файла : 3,74 Гбайт
Продолжительность : 1 ч. 37 м.
Общий поток : 5505 Кбит/сек
Название фильма : Hotel Transylvania 3: Summer Vacation
Дата кодирования : UTC 2018-09-25 05:59:43
Программа кодирования : mkvmerge v26.0.0 ('In The Game') 64-bit
Библиотека кодирования : libebml v1.3.6 + libmatroska v1.4.9
Видео
Идентификатор : 1
Формат : AVC
Формат/Информация : Advanced Video Codec
Профиль формата : [email protected]
Настройки формата : CABAC / 4 Ref Frames
Параметр CABAC формата : Да
Параметр RefFrames формата : 4 кадра
Идентификатор кодека : V_MPEG4/ISO/AVC
Продолжительность : 1 ч. 37 м.
Битрейт : 5119 Кбит/сек
Ширина : 1920 пикселей
Высота : 1032 пикселя
Соотношение сторон : 1,85:1
Режим частоты кадров : Постоянный
Частота кадров : 23,976 (23976/1000) кадра/сек
Частота кадров в оригинале : 47,952 кадров/сек
Цветовое пространство : YUV
Субдискретизация насыщенности : 4:2:0
Битовая глубина : 8 бит
Тип развёртки : Прогрессивная
Бит/(Пиксели*Кадры) : 0.108
Размер потока : 3,48 Гбайт (93%)
Заголовок : Hotel Transylvania 3: Summer Vacation
Язык : English
Default : Да
Forced : Нет
Цветовой диапазон : Limited
Основные цвета : BT.709
Характеристики трансфера : BT.709
Коэффициенты матрицы : BT.709
Аудио
Идентификатор : 2
Формат : AC-3
Формат/Информация : Audio Coding 3
Коммерческое название : Dolby Digital
Идентификатор кодека : A_AC3
Продолжительность : 1 ч. 37 м.
Вид битрейта : Постоянный
Битрейт : 384 Кбит/сек
Каналы : 6 каналов
Channel layout : L R C LFE Ls Rs
Частота : 48,0 КГц
Частота кадров : 31,250 кадров/сек (1536 SPF)
Битовая глубина : 16 бит
Метод сжатия : С потерями
Размер потока : 267 Мбайт (7%)
Заголовок : iTunes
Язык : Russian
ServiceKind/String : Complete Main
Default : Да
Forced : Нет
Текст #1
Идентификатор : 3
Формат : UTF-8
Идентификатор кодека : S_TEXT/UTF8
Идентификатор кодека/Информация : UTF-8 Plain Text
Продолжительность : 1 ч. 36 м.
Битрейт : 0 бит/сек
ElementCount : 5
Размер потока : 120 байт (0%)
Заголовок : Forced
Язык : Russian
Default : Да
Forced : Нет
Текст #2
Идентификатор : 4
Формат : UTF-8
Идентификатор кодека : S_TEXT/UTF8
Идентификатор кодека/Информация : UTF-8 Plain Text
Продолжительность : 1 ч. 36 м.
Битрейт : 76 бит/сек
ElementCount : 1118
Размер потока : 54,4 Кбайт (0%)
Заголовок : Full
Язык : Russian
Default : Нет
Forced : Нет
Меню
00:00:00.000 : en:1
00:04:28.935 : en:2
00:09:34.824 : en:3
00:16:02.044 : en:4
00:20:03.076 : en:5
00:24:34.931 : en:6
00:31:12.536 : en:7
00:36:49.206 : en:8
00:44:04.724 : en:9
00:49:57.701 : en:10
00:54:49.743 : en:11
01:00:34.879 : en:12
01:06:12.007 : en:13
01:10:32.267 : en:14
01:13:46.377 : en:15
01:24:56.547 : en:16
Download / Скачать

Хотите скачать бесплатно? Зарегистрируйтесь на сайте (ссылка на регистрацию). Pirat.ca - самый быстрый торрент трекер в рунете!

Как скачивать  ·   Что такое торрент  ·   Рейтинг и ограничения

SwordFish

Корсар

1647

Пост 30-Сен-2018 22:08 (спустя 5 дней)

[Q] 

Глянемс... Лови бочку
[Профиль]  [ЛС] 

kinstintin

Легенда

Пост 05-Окт-2018 20:13 (спустя 4 дня)

[Q] 

Спасибо!!!
Лови бочку
[Профиль]  [ЛС] 

a s d

Корсар

1

Пост 19-Окт-2018 01:16 (спустя 13 дней)

[Q] 

Автору респект!!! !!! Поглядим!!!
[Профиль]  [ЛС] 

flesh_208

Флибустьер

Пост 23-Окт-2018 13:07 (спустя 4 дня)

[Q] 

Мульт как и все остальные части просто -ВАХ!)
[Профиль]  [ЛС] 

Edward Teach

Корсар

Пост 03-Ноя-2018 03:22 (спустя 10 дней)

[Q] 

Спасибо за раздачу
[Профиль]  [ЛС] 

RostislavKis

Корсар

17

Пост 11-Ноя-2018 13:28 (спустя 8 дней)

[Q] 

Мульт прикольный. Спасибо. Лови бочку

_________________
[Профиль]  [ЛС] 

bull271174New

Штурман

Пост 05-Дек-2018 06:38 (спустя 23 дня)

[Q] 

Посмотрели с удовольствием
[Профиль]  [ЛС] 
Показать сообщения:    
Ответить на тему

Текущее время: Сегодня 06:25

Часовой пояс: GMT + 4



Вы не можете начинать темы
Вы не можете отвечать на сообщения
Вы не можете редактировать свои сообщения
Вы не можете удалять свои сообщения
Вы не можете голосовать в опросах
Вы не можете прикреплять файлы к сообщениям
Вы не можете скачивать файлы

Майнать ▼