Апгрейд / Upgrade (Ли Уоннелл/Leigh Whannell) [2018 г., криминал, детектив, фантастика, киберпанк, боевик, BDRip, 1080p] MVO Sub (Rus) + Original (Eng)

Ответить на тему
 
Автор
Сообщение

Пост 27-Авг-2018 11:50

[Q] 

SwordFish

Корсар

-Апгрейд / Upgrade«Not Man. Not Machine. More»-- Производство: Австралия, Blumhouse Productions, Goalpost Pictures
Год выпуска: 2018 г.
Жанр: криминал, детектив, фантастика, киберпанк, боевик
Продолжительность: 01:39:54
Мировая премьера: 10 марта 2018
Перевод: Профессиональный (многоголосый, закадровый) [HDRezka Studio]
Оригинальный аудиопоток: английский
Режиссёр: Ли Уоннелл/Leigh Whannell-В ролях: Логан Маршалл-Грин, Ричард Анастасиос, Роско Кэмпбелл, Ричард Коуторн, Линда Кроппер, Стив Даниелсен, Майкл М. Фостер, Бетти Гэбриел, Рена Галлахер, Харрисон Гилбертсон-Описание: Действие разворачивается в ближайшем будущем, в котором разнообразные технологии участвуют во всех аспектах человеческой жизни. Но в этом технологичном будущем Грей — один из немногих людей, кто любит работать руками. Он восстанавливает и чинит старые автомобили. Однажды, возвращаясь от клиента, Грей с женой попадают в аварию, а после — в руки банды отморозков, в результате чего женщина погибает, а Грей оказывается парализованным ниже шеи. Тот самый богатый клиент предлагает несчастному поставить экспериментальный имплант Stem, который может полностью восстановить подвижность.-
Качество видео: BDRip
Контейнер: MKV
Стандарт разрешения: 1080p
Видео кодек: MPEG4 AVC
Аудио кодек: DTS, AC3
Видео: MPEG-4 AVC, 8105 Кбит/c, 1920x804
Аудио #1: RUS (DTS, 6 ch, 1509 Кбит/с, 48.0 kHz, 24bit) [HDRezka Studio]
Аудио #2: RUS (AC3 , 6 ch, 640 Кбит/с, 48.0 kHz, 16bit) [HDRezka Studio]
Аудио #3: ENG (DTS, 6 ch, 1509 Кбит/с, 48.0 kHz, 24bit)
Cубтитры: Rus+Eng
Формат субтитров: softsub (SRT)
General
Unique ID : 255156090818671937357307093046619048318 (0xBFF5468C69F90388BC564A1CC9CC897E)
Complete name : D:\Video111\upgrade\Upgrade.2018.BDRip.1080p.ExKinoRay.mkv
Format : Matroska
Format version : Version 4 / Version 2
File size : 8.21 GiB
Duration : 1 h 39 min
Overall bit rate : 11.8 Mb/s
Movie name : Upgrade 2018 from ExKinoRay
Encoded date : UTC 2018-08-23 19:40:47
Writing application : mkvmerge v7.3.0 ('Nouages') 64bit built on Oct 22 2014 18:53:34
Writing library : libebml v1.3.0 + libmatroska v1.4.1
Video
ID : 1
Format : AVC
Format/Info : Advanced Video Codec
Format profile : [email protected]
Format settings : CABAC / 4 Ref Frames
Format settings, CABAC : Yes
Format settings, ReFrames : 4 frames
Codec ID : V_MPEG4/ISO/AVC
Duration : 1 h 39 min
Bit rate : 8 105 kb/s
Width : 1 920 pixels
Height : 804 pixels
Display aspect ratio : 2.40:1
Frame rate mode : Constant
Frame rate : 23.976 (24000/1001) FPS
Color space : YUV
Chroma subsampling : 4:2:0
Bit depth : 8 bits
Scan type : Progressive
Bits/(Pixel*Frame) : 0.219
Stream size : 5.66 GiB (69%)
Writing library : x264 core 155 r2867+74 66b5600 t_mod_Custom_2 [[email protected] X86_64]
Encoding settings : cabac=1 / ref=4 / deblock=1:-3:-3 / analyse=0x3:0x113 / me=umh / subme=10 / psy=1 / fade_compensate=0.00 / psy_rd=0.90:0.10 / mixed_ref=1 / me_range=48 / chroma_me=1 / trellis=2 / 8x8dct=1 / cqm=0 / deadzone=21,11 / fast_pskip=0 / chroma_qp_offset=-2 / threads=18 / lookahead_threads=3 / sliced_threads=0 / nr=0 / decimate=1 / interlaced=0 / bluray_compat=0 / constrained_intra=0 / fgo=0 / bframes=8 / b_pyramid=2 / b_adapt=2 / b_bias=0 / direct=3 / weightb=1 / open_gop=0 / weightp=2 / keyint=250 / keyint_min=23 / scenecut=40 / intra_refresh=0 / rc_lookahead=40 / rc=crf / mbtree=0 / crf=20.0000 / qcomp=0.70 / qpmin=0:0:0 / qpmax=69:69:69 / qpstep=4 / vbv_maxrate=35000 / vbv_bufsize=35000 / crf_max=0.0 / nal_hrd=none / filler=0 / ip_ratio=1.40 / pb_ratio=1.30 / aq=3:0.90 / aq-sensitivity=10.00 / aq-factor=1.00:1.00:1.00 / aq2=0 / aq3=2:[0.50:0.50]:[0.50:0.50]:[0.50:0.50]:[0.50:0.50] / aq3-sensitivity=10.00 / aq3-factor=[1.00:1.00]:[1.00:1.00]:[1.00:1.00] / aq3-boundary=192:64:24
Language : English
Default : Yes
Forced : No
Color range : Limited
Matrix coefficients : BT.709
Audio #1
ID : 2
Format : DTS
Format/Info : Digital Theater Systems
Codec ID : A_DTS
Duration : 1 h 39 min
Bit rate mode : Constant
Bit rate : 1 509 kb/s
Channel(s) : 6 channels
Channel positions : Front: L C R, Side: L R, LFE
Sampling rate : 48.0 kHz
Frame rate : 93.750 FPS (512 SPF)
Bit depth : 24 bits
Compression mode : Lossy
Stream size : 1.05 GiB (13%)
Title : MVO [HDRezka Studio]
Language : Russian
Default : Yes
Forced : Yes
Audio #2
ID : 3
Format : AC-3
Format/Info : Audio Coding 3
Commercial name : Dolby Digital
Codec ID : A_AC3
Duration : 1 h 39 min
Bit rate mode : Constant
Bit rate : 640 kb/s
Channel(s) : 6 channels
Channel positions : Front: L C R, Side: L R, LFE
Sampling rate : 48.0 kHz
Frame rate : 31.250 FPS (1536 SPF)
Bit depth : 16 bits
Compression mode : Lossy
Stream size : 457 MiB (5%)
Title : MVO [HDRezka Studio]
Language : Russian
Service kind : Complete Main
Default : No
Forced : No
Audio #3
ID : 4
Format : DTS
Format/Info : Digital Theater Systems
Codec ID : A_DTS
Duration : 1 h 39 min
Bit rate mode : Constant
Bit rate : 1 509 kb/s
Channel(s) : 6 channels
Channel positions : Front: L C R, Side: L R, LFE
Sampling rate : 48.0 kHz
Frame rate : 93.750 FPS (512 SPF)
Bit depth : 24 bits
Compression mode : Lossy
Stream size : 1.05 GiB (13%)
Title : Original
Language : English
Default : No
Forced : No
Text #1
ID : 5
Format : UTF-8
Codec ID : S_TEXT/UTF8
Codec ID/Info : UTF-8 Plain Text
Duration : 1 h 32 min
Bit rate : 88 b/s
Count of elements : 1290
Stream size : 59.6 KiB (0%)
Title : Full
Language : Russian
Default : No
Forced : No
Text #2
ID : 6
Format : UTF-8
Codec ID : S_TEXT/UTF8
Codec ID/Info : UTF-8 Plain Text
Duration : 1 h 32 min
Bit rate : 49 b/s
Count of elements : 1290
Stream size : 33.3 KiB (0%)
Title : Full
Language : English
Default : No
Forced : No
Text #3
ID : 7
Format : UTF-8
Codec ID : S_TEXT/UTF8
Codec ID/Info : UTF-8 Plain Text
Duration : 1 h 35 min
Bit rate : 57 b/s
Count of elements : 1516
Stream size : 40.1 KiB (0%)
Title : SDH
Language : English
Default : No
Forced : No
Menu
00:00:00.000 : en:00:00:00.000
00:05:38.296 : en:00:05:38.296
00:09:04.919 : en:00:09:04.919
00:15:26.759 : en:00:15:26.759
00:18:42.705 : en:00:18:42.705
00:21:43.636 : en:00:21:43.636
00:28:37.382 : en:00:28:37.382
00:34:42.622 : en:00:34:42.622
00:41:17.058 : en:00:41:17.058
00:47:55.623 : en:00:47:55.623
00:51:14.530 : en:00:51:14.530
00:56:58.457 : en:00:56:58.457
01:01:34.566 : en:01:01:34.566
01:05:22.168 : en:01:05:22.168
01:09:10.938 : en:01:09:10.938
01:16:13.194 : en:01:16:13.194
01:20:17.104 : en:01:20:17.104
01:25:41.928 : en:01:25:41.928
01:31:45.250 : en:01:31:45.250
01:33:57.632 : en:01:33:57.632
Download / Скачать

Хотите скачать бесплатно? Зарегистрируйтесь на сайте (ссылка на регистрацию). Pirat.ca - самый быстрый торрент трекер в рунете!

Как скачивать  ·   Что такое торрент  ·   Рейтинг и ограничения

Apostle358

Флибустьер

170

Пост 28-Авг-2018 13:51 (спустя 1 день 2 часа)

[Q] 

Не могу не заметить, что голос переводчицы съедает оригинал - порой фразы совсем непонятны.
[Профиль]  [ЛС] 

distorshion

Юнга

Пост 04-Сен-2018 14:06 (спустя 7 дней)

[Q] 

Фильм интересный, советую.
[Профиль]  [ЛС] 

shchurok

Матрос

Пост 24-Сен-2018 02:17 (спустя 19 дней)

[Q] 

Ужасный звук.

_________________
Как волка ни корми, а у слона все равно больше.
[Профиль]  [ЛС] 

redfield

Корсар

Пост 28-Сен-2018 22:40 (спустя 4 дня)

[Q] 

Да наводит на мысли
[Профиль]  [ЛС] 

mazadrive

Шкипер

Пост 06-Дек-2018 10:32 (спустя 2 месяца 7 дней)

[Q] 

Смотрибельный. На любителя
[Профиль]  [ЛС] 

megokitaez

Лоцман

Пост 15-Дек-2018 09:13 (спустя 8 дней)

[Q] 

очень хороший фильм. мотивация персонажей очень здорово поставлена, монтаж идеально подходит в стилистику и тематику фильма, актерский состав отыгрывает очень неплохо, СПОЙЛЕР!(Логан Маршалл-Грин неплохо передал актерской игрой сразу 2х персонажей). Как большой фанат научной фантастики и киберпанка был в восторге. Мало таких произведений от сюжетного поворота, который легко угадывается, можно ощутить приятное удивление. здесь этого добились путем выдержки атмосферы киберпанка и реализма. еще раз хочу отметить хорошие монтаж и актеров .
СПОЙЛЕР! (Логан Маршалл-Грин неплохо передал и раскрыл, актерской игрой сразу 2х персонажей).
[Профиль]  [ЛС] 

Hippopotam

Флибустьер

Пост Сегодня 04:17 (спустя 3 дня)

[Q] 

Почетная грамота и кубок хорошего вина создателям фильма. Хотя сюжет не особливо оригинален, получился замечательный киберпанк. Ничего лишнего. Почти нуар. Приятное послевкусие после просмотра Одобрямс! Автору респект!!!
[Профиль]  [ЛС] 
Показать сообщения:    
Ответить на тему

Текущее время: Сегодня 09:29

Часовой пояс: GMT + 4



Вы не можете начинать темы
Вы не можете отвечать на сообщения
Вы не можете редактировать свои сообщения
Вы не можете удалять свои сообщения
Вы не можете голосовать в опросах
Вы не можете прикреплять файлы к сообщениям
Вы не можете скачивать файлы

Майнать ▼