Король вне закона / Outlaw King (Дэвид Маккензи /David Mackenzie) [2018 г., боевик, драма, биография, история, WEBRip, 1080p] Dub + Subs (Eng, Rus и др.)

Ответить на тему
 
Автор
Сообщение

Пост 09-Ноя-2018 21:48

[Q] 

tank69

Флибустьер

-Король вне закона / Outlaw King-- Производство: Великобритания, США, Sigma Films, Anonymous Content, Clockwork Sessions
Год выпуска: 2018 г.
Жанр: боевик, драма, биография, история
Продолжительность: 02:01:38
Мировая премьера: 09 ноября 2018
Перевод: Профессиональный (полное дублирование)
Режиссёр: Дэвид Маккензи /David Mackenzie-В ролях: Крис Пайн, Стивен Диллэйн, Rebecca Robin, Билли Хоул, Пол Блэр, Сэм Спруэлл, Джонатан Филлипс, Джэми МакЛахлан, Данкан Лакруа, Кевин Мэйнс, Каллэн Мулвей.-Описание: История Роберта Брюса, одного из величайших шотландских монархов, организатора обороны страны в начальный период войны за независимость против Англии.-
Качество видео: WEBRip
Контейнер: MKV
Стандарт разрешения: 1080p
Видео кодек: MPEG4 AVC
Аудио кодек: AC3
Видео: AVC, 1920x1080, 24.000 fps, 5800 Kbps
Аудио: Rus: AC-3, 48.0 KHz, 6 ch, 384 Kbps
Аудио: Eng: AC-3, 48.0 KHz, 6 ch, 448 Kbps
Cубтитры: английские, русские и другие
Доп. информация о субтитрах: UTF-8
бщее
Уникальный идентификатор : 120560035990225430413356212806057581856 (0x5AB304B1FEE1BBE30EB26CA45795DD20)
Полное имя : C:\Users\vigor\Downloads\Outlaw.King.2018.1080p.WEB-DL.Rus.Eng.EniaHD.mkv
Формат : Matroska
Версия формата : Version 4 / Version 2
Размер файла : 5,59 Гбайт
Продолжительность : 2 ч. 1 м.
Режим общего битрейта : Переменный
Общий поток : 6575 Кбит/сек
Название фильма : Король вне закона 2018
Дата кодирования : UTC 2018-11-09 13:16:03
Программа кодирования : mkvmerge v28.2.0 ('The Awakening') 32-bit
Библиотека кодирования : libebml v1.3.6 + libmatroska v1.4.9
Обложка : Yes
Attachments : cover.jpg
Видео
Идентификатор : 1
Формат : AVC
Формат/Информация : Advanced Video Codec
Профиль формата : [email protected]
Настройки формата : CABAC / 3 Ref Frames
Параметр CABAC формата : Да
Параметр RefFrames формата : 3 кадра
Идентификатор кодека : V_MPEG4/ISO/AVC
Продолжительность : 2 ч. 1 м.
Вид битрейта : Переменный
Битрейт : 5800 Кбит/сек
Максимальный битрейт : 8700 Кбит/сек
Ширина : 1920 пикселей
Высота : 1080 пикселей
Соотношение сторон : 16:9
Режим частоты кадров : Постоянный
Частота кадров : 24,000 кадра/сек
Цветовое пространство : YUV
Субдискретизация насыщенности : 4:2:0
Битовая глубина : 8 бит
Тип развёртки : Прогрессивная
Бит/(Пиксели*Кадры) : 0.117
Размер потока : 4,88 Гбайт (87%)
Заголовок : Outlaw.King.2018.1080p.WEB-DL.Rus.Eng.EniaHD
Библиотека кодирования : x264 core 148 r2715 7e75228
Настройки программы : cabac=1 / ref=3 / deblock=1:0:0 / analyse=0x1:0x111 / me=umh / subme=10 / psy=1 / psy_rd=1.00:0.00 / mixed_ref=1 / me_range=24 / chroma_me=1 / trellis=2 / 8x8dct=0 / cqm=0 / deadzone=21,11 / fast_pskip=1 / chroma_qp_offset=-2 / threads=8 / lookahead_threads=1 / sliced_threads=0 / nr=0 / decimate=1 / interlaced=0 / bluray_compat=0 / stitchable=1 / constrained_intra=0 / bframes=2 / b_pyramid=0 / b_adapt=2 / b_bias=0 / direct=3 / weightb=1 / open_gop=0 / weightp=2 / keyint=48 / keyint_min=25 / scenecut=0 / intra_refresh=0 / rc_lookahead=48 / rc=2pass / mbtree=1 / bitrate=5800 / ratetol=1.0 / qcomp=0.50 / qpmin=6 / qpmax=51 / qpstep=4 / cplxblur=20.0 / qblur=0.5 / vbv_maxrate=8700 / vbv_bufsize=11600 / nal_hrd=vbr / filler=0 / ip_ratio=1.40 / aq=1:1.00
Язык : English
Default : Да
Forced : Нет
Аудио #1
Идентификатор : 2
Формат : AC-3
Формат/Информация : Audio Coding 3
Идентификатор кодека : A_AC3
Продолжительность : 2 ч. 1 м.
Вид битрейта : Постоянный
Битрейт : 384 Кбит/сек
Каналы : 6 каналов
Расположение каналов : Front: L C R, Side: L R, LFE
Частота : 48,0 КГц
Частота кадров : 31,250 кадров/сек (1536 SPF)
Битовая глубина : 16 бит
Метод сжатия : С потерями
Размер потока : 334 Мбайт (6%)
Заголовок : AC3 5.1 @ 384 kbps - DUB, Невафильм
Язык : Russian
ServiceKind/String : Complete Main
Default : Да
Forced : Нет
Аудио #2
Идентификатор : 3
Формат : E-AC-3
Формат/Информация : Enhanced Audio Coding 3
Профиль формата : E-AC-3+Atmos / E-AC-3
Идентификатор кодека : A_EAC3
Продолжительность : 2 ч. 1 м.
Вид битрейта : Постоянный
Битрейт : 448 Кбит/сек
Каналы : 15 objects / 6 каналов
Расположение каналов : 15 objects / Front: L C R, Side: L R, LFE
Частота : 48,0 КГц
Частота кадров : 187,500 кадров/сек (256 SPF)
Метод сжатия : С потерями
Размер потока : 390 Мбайт (7%)
Заголовок : E-AC3 + Atmos 5.1 @ 448 - Original
Язык : English
ServiceKind/String : Complete Main
Default : Нет
Forced : Нет
Текст #1
Идентификатор : 4
Формат : UTF-8
Идентификатор кодека : S_TEXT/UTF8
Идентификатор кодека/Информация : UTF-8 Plain Text
Продолжительность : 2 ч. 0 м.
Битрейт : 3 бит/сек
ElementCount : 43
Размер потока : 2,84 Кбайт (0%)
Заголовок : Forced
Язык : Russian
Default : Да
Forced : Да
Текст #2
Идентификатор : 5
Формат : UTF-8
Идентификатор кодека : S_TEXT/UTF8
Идентификатор кодека/Информация : UTF-8 Plain Text
Продолжительность : 2 ч. 0 м.
Битрейт : 63 бит/сек
ElementCount : 1198
Размер потока : 56,1 Кбайт (0%)
Заголовок : Full
Язык : Russian
Default : Нет
Forced : Нет
Текст #3
Идентификатор : 6
Формат : UTF-8
Идентификатор кодека : S_TEXT/UTF8
Идентификатор кодека/Информация : UTF-8 Plain Text
Продолжительность : 1 ч. 59 м.
Битрейт : 47 бит/сек
ElementCount : 1387
Размер потока : 41,6 Кбайт (0%)
Заголовок : Full SDH
Язык : English
Default : Нет
Forced : Нет
Текст #4
Идентификатор : 7
Формат : UTF-8
Идентификатор кодека : S_TEXT/UTF8
Идентификатор кодека/Информация : UTF-8 Plain Text
Продолжительность : 2 ч. 0 м.
Битрейт : 37 бит/сек
ElementCount : 1175
Размер потока : 32,7 Кбайт (0%)
Заголовок : Dutch
Язык : Dutch
Default : Нет
Forced : Нет
Текст #5
Идентификатор : 8
Формат : UTF-8
Идентификатор кодека : S_TEXT/UTF8
Идентификатор кодека/Информация : UTF-8 Plain Text
Продолжительность : 2 ч. 0 м.
Битрейт : 38 бит/сек
ElementCount : 1118
Размер потока : 33,6 Кбайт (0%)
Заголовок : Portuguese
Язык : Portuguese
Default : Нет
Forced : Нет
Текст #6
Идентификатор : 9
Формат : UTF-8
Идентификатор кодека : S_TEXT/UTF8
Идентификатор кодека/Информация : UTF-8 Plain Text
Продолжительность : 2 ч. 0 м.
Битрейт : 35 бит/сек
ElementCount : 1139
Размер потока : 31,7 Кбайт (0%)
Заголовок : Italian
Язык : Italian
Default : Нет
Forced : Нет
Текст #7
Идентификатор : 10
Формат : UTF-8
Идентификатор кодека : S_TEXT/UTF8
Идентификатор кодека/Информация : UTF-8 Plain Text
Продолжительность : 2 ч. 0 м.
Битрейт : 37 бит/сек
ElementCount : 1196
Размер потока : 32,7 Кбайт (0%)
Заголовок : Polish
Язык : Polish
Default : Нет
Forced : Нет
Текст #8
Идентификатор : 11
Формат : UTF-8
Идентификатор кодека : S_TEXT/UTF8
Идентификатор кодека/Информация : UTF-8 Plain Text
Продолжительность : 2 ч. 0 м.
Битрейт : 35 бит/сек
ElementCount : 1145
Размер потока : 31,7 Кбайт (0%)
Заголовок : Brazilian Portuguese
Язык : Portuguese
Default : Нет
Forced : Нет
Текст #9
Идентификатор : 12
Формат : UTF-8
Идентификатор кодека : S_TEXT/UTF8
Идентификатор кодека/Информация : UTF-8 Plain Text
Продолжительность : 2 ч. 0 м.
Битрейт : 33 бит/сек
ElementCount : 977
Размер потока : 29,3 Кбайт (0%)
Заголовок : Finnish
Язык : Finnish
Default : Нет
Forced : Нет
Текст #10
Идентификатор : 13
Формат : UTF-8
Идентификатор кодека : S_TEXT/UTF8
Идентификатор кодека/Информация : UTF-8 Plain Text
Продолжительность : 2 ч. 0 м.
Битрейт : 37 бит/сек
ElementCount : 1169
Размер потока : 32,9 Кбайт (0%)
Заголовок : Swedish
Язык : Swedish
Default : Нет
Forced : Нет
Текст #11
Идентификатор : 14
Формат : UTF-8
Идентификатор кодека : S_TEXT/UTF8
Идентификатор кодека/Информация : UTF-8 Plain Text
Продолжительность : 2 ч. 0 м.
Битрейт : 41 бит/сек
ElementCount : 1205
Размер потока : 36,2 Кбайт (0%)
Заголовок : French
Язык : French
Default : Нет
Forced : Нет
Текст #12
Идентификатор : 15
Формат : UTF-8
Идентификатор кодека : S_TEXT/UTF8
Идентификатор кодека/Информация : UTF-8 Plain Text
Продолжительность : 2 ч. 0 м.
Битрейт : 34 бит/сек
ElementCount : 956
Размер потока : 30,2 Кбайт (0%)
Заголовок : Danish
Язык : Danish
Default : Нет
Forced : Нет
Текст #13
Идентификатор : 16
Формат : UTF-8
Идентификатор кодека : S_TEXT/UTF8
Идентификатор кодека/Информация : UTF-8 Plain Text
Продолжительность : 2 ч. 0 м.
Битрейт : 32 бит/сек
ElementCount : 1199
Размер потока : 28,5 Кбайт (0%)
Заголовок : Norwegian
Язык : Norwegian
Default : Нет
Forced : Нет
Текст #14
Идентификатор : 17
Формат : UTF-8
Идентификатор кодека : S_TEXT/UTF8
Идентификатор кодека/Информация : UTF-8 Plain Text
Продолжительность : 2 ч. 0 м.
Битрейт : 37 бит/сек
ElementCount : 1183
Размер потока : 32,7 Кбайт (0%)
Заголовок : European Spanish
Язык : Spanish
Default : Нет
Forced : Нет
Текст #15
Идентификатор : 18
Формат : UTF-8
Идентификатор кодека : S_TEXT/UTF8
Идентификатор кодека/Информация : UTF-8 Plain Text
Продолжительность : 2 ч. 0 м.
Битрейт : 68 бит/сек
ElementCount : 1174
Размер потока : 60,5 Кбайт (0%)
Заголовок : Greek
Язык : Russian
Default : Нет
Forced : Нет
Текст #16
Идентификатор : 19
Формат : UTF-8
Идентификатор кодека : S_TEXT/UTF8
Идентификатор кодека/Информация : UTF-8 Plain Text
Продолжительность : 2 ч. 0 м.
Битрейт : 39 бит/сек
ElementCount : 1226
Размер потока : 35,0 Кбайт (0%)
Заголовок : Spanish
Язык : Spanish
Default : Нет
Forced : Нет
Текст #17
Идентификатор : 20
Формат : UTF-8
Идентификатор кодека : S_TEXT/UTF8
Идентификатор кодека/Информация : UTF-8 Plain Text
Продолжительность : 2 ч. 0 м.
Битрейт : 40 бит/сек
ElementCount : 1196
Размер потока : 35,4 Кбайт (0%)
Заголовок : German
Язык : German
Default : Нет
Forced : Нет
Текст #18
Идентификатор : 21
Формат : UTF-8
Идентификатор кодека : S_TEXT/UTF8
Идентификатор кодека/Информация : UTF-8 Plain Text
Продолжительность : 2 ч. 0 м.
Битрейт : 37 бит/сек
ElementCount : 1155
Размер потока : 32,9 Кбайт (0%)
Заголовок : Indonesian
Язык : Russian
Default : Нет
Forced : Нет
Текст #19
Идентификатор : 22
Формат : UTF-8
Идентификатор кодека : S_TEXT/UTF8
Идентификатор кодека/Информация : UTF-8 Plain Text
Продолжительность : 2 ч. 0 м.
Битрейт : 38 бит/сек
ElementCount : 1203
Размер потока : 33,8 Кбайт (0%)
Заголовок : Turkish
Язык : Turkish
Default : Нет
Forced : Нет
БЕЗ РЕКЛАМЫ
Download / Скачать

Хотите скачать бесплатно? Зарегистрируйтесь на сайте (ссылка на регистрацию). Pirat.ca - самый быстрый торрент трекер в рунете!

Как скачивать  ·   Что такое торрент  ·   Рейтинг и ограничения

grosboy

Гроза морей

Пост 09-Ноя-2018 23:33 (спустя 1 час 44 минуты)

[Q] 

Автору спасибо. Люблю исторические фильмы в хорошем качестве.

_________________
Щастье есть - его не может не быть...
[Профиль]  [ЛС] 

pvm

Флибустьер

Пост 10-Ноя-2018 02:55 (спустя 3 часа)

[Q] 

А почему временная?
[Профиль]  [ЛС] 

SM 96

Легенда

Пост 10-Ноя-2018 13:38 (спустя 10 часов)

[Q] 

Лови бочку
[Профиль]  [ЛС] 

tank69 ®

Флибустьер

1639

Пост 10-Ноя-2018 15:05 (спустя 1 час 27 минут)

[Q] 

pvm,
Нет ничего постояннее, чем временное ag
[Профиль]  [ЛС] 

grosboy

Гроза морей

Пост 11-Ноя-2018 00:10 (спустя 9 часов)

[Q] 

Нормальный фильм до Храброго сердца ему далековато, но на раз глянуть сойдёт...

_________________
Щастье есть - его не может не быть...
[Профиль]  [ЛС] 

pvm

Флибустьер

Пост 11-Ноя-2018 02:16 (спустя 2 часа 6 минут)

[Q] 

Ладно, надо смотреть
[Профиль]  [ЛС] 

RostislavKis

Корсар

17

Пост 11-Ноя-2018 13:35 (спустя 11 часов)

[Q] 

Посмотрим. За ценим. Лови бочку

_________________
[Профиль]  [ЛС] 

Мерзавец

Морской Волк

Пост 11-Ноя-2018 17:16 (спустя 3 часа)

[Q] 

Потрясающе красиво! нежданьчик
[Профиль]  [ЛС] 

belik1986

Шкипер

Пост 12-Ноя-2018 01:51 (спустя 8 часов)

[Q] 

Респект!!! Фильм годный! Раздающему респект! Спасибо!!!
[Профиль]  [ЛС] 

a s d

Корсар

1

Пост 12-Ноя-2018 02:57 (спустя 1 час 6 минут)

[Q] 

Автору респект!!! !!! Спасибо!!! !!!
[Профиль]  [ЛС] 

павел-ижевск

Лоцман

Пост 16-Ноя-2018 19:53 (спустя 4 дня)

[Q] 

123456789101112
[Профиль]  [ЛС] 

lmld

Шкипер

Пост 19-Ноя-2018 12:41 (спустя 2 дня 16 часов)

[Q] 

Автору Спасибо!!! Лови бочку
[Профиль]  [ЛС] 

R_Viktorson

Мичман

Пост 25-Ноя-2018 23:04 (спустя 6 дней)

[Q] 

нормальный фильм. стало интересно что там по истории было. оказывается вся эта ботва больше 20 лет длилась, а жена его 8 лет в монастырях сидела. по фильму так за год уложились.
[Профиль]  [ЛС] 

valerkak1

Шкипер

Пост 27-Ноя-2018 19:55 (спустя 1 день 20 часов)

[Q] 

Качество отличное и фильм хороший Лови бочку Спасибо за Спасибо
[Профиль]  [ЛС] 

vadim0525

Корсар

288

Пост 07-Дек-2018 15:07 (спустя 9 дней)

[Q] 

Лови бочку Спасибо.
[Профиль]  [ЛС] 

xaker2208

Канонир

Пост 09-Дек-2018 20:15 (спустя 2 дня 5 часов)

[Q] 

Спасибо Лови бочку
[Профиль]  [ЛС] 
Показать сообщения:    
Ответить на тему

Текущее время: Сегодня 06:06

Часовой пояс: GMT + 4



Вы не можете начинать темы
Вы не можете отвечать на сообщения
Вы не можете редактировать свои сообщения
Вы не можете удалять свои сообщения
Вы не можете голосовать в опросах
Вы не можете прикреплять файлы к сообщениям
Вы не можете скачивать файлы

Майнать ▼