Багровая мята / Peppermint (Пьер Морел / Pierre Morel) [2018 г., боевик, триллер, драма, WEB-DLRip] Dub

Ответить на тему
 
Автор
Сообщение

Пост 08-Дек-2018 15:58

[Q] 

Су-34

Легенда

Багровая мята / Peppermint«У каждой мести свой вкус и цвет»- -Производство: США, Гонконг
Год выпуска: 2018 г.
Жанр: боевик, триллер, драма
Продолжительность: 01:41:3
Мировая премьера: 6 сентября 2018, ...
Российская премьера: 13 сентября 2018,
Перевод: Профессиональный (полное дублирование) [ iTunes]-Режиссёр: Пьер Морел / Pierre Morel-В ролях: Дженнифер Гарнер, Джон Галлахер мл., Джон Ортис, Хуан Пабло Раба, Энни Айлонзех, Джефф Хефнер, Кэйли Флеминг, Эдди Шин, Метод Мэн, Тайсон Риттер-Описание: Когда система закрывает глаза на убийство ее семьи, она решает вершить справедливость сама: очистить город от преступников и продажных полицейских, чтобы отомстить за любимых. Ведь месть — это блюдо, которое подают холодным. Холодным, как мороженое со вкусом мяты, которое так любила ее единственная дочь.-- -Качество видео: WEB-DLRip
Контейнер: AVI
Видео кодек: XviD
Аудио кодек: AC3
Видео: 720x304 (2.37:1), 23.976 fps, XviD build 67 ~1663 kbps avg, 0.32 bit/pixel
Аудио: 48 kHz, AC3 Dolby Digital, 3/2 (L,C,R,l,r) + LFE ch, ~384 kbps
Cубтитры: отсутствуют
Формат : AVI
Формат/Информация : Audio Video Interleave
Размер файла : 1,46 Гбайт
Продолжительность : 1 ч. 41 м.
Общий поток : 2057 Кбит/сек
Программа кодирования : VirtualDubMod 1.5.10.3 | www.virtualdub-fr.org || (build 2550/release)
Библиотека кодирования : VirtualDubMod build 2550/release
Видео
Идентификатор : 0
Формат : MPEG-4 Visual
Профиль формата : Advanced [email protected]
Настройки формата : BVOP1 / Custom Matrix
Параметр BVOP формата : 1
Параметр QPel формата : Нет
Параметр GMC формата : Без точки перехода
Параметр матрицы формата : Выборочная
Идентификатор кодека : XVID
Идентификатор кодека/Подсказка : XviD
Продолжительность : 1 ч. 41 м.
Битрейт : 1664 Кбит/сек
Ширина : 720 пикселей
Высота : 304 пикселя
Соотношение сторон : 2,35:1
Частота кадров : 23,976 (24000/1001) кадра/сек
Цветовое пространство : YUV
Субдискретизация насыщенности : 4:2:0
Битовая глубина : 8 бит
Тип развёртки : Прогрессивная
Метод сжатия : С потерями
Бит/(Пиксели*Кадры) : 0.317
Размер потока : 1,18 Гбайт (81%)
Библиотека кодирования : XviD 67
Аудио
Идентификатор : 1
Формат : AC-3
Формат/Информация : Audio Coding 3
Коммерческое название : Dolby Digital
Идентификатор кодека : 2000
Продолжительность : 1 ч. 41 м.
Вид битрейта : Постоянный
Битрейт : 384 Кбит/сек
Каналы : 6 каналов
Channel layout : L R C LFE Ls Rs
Частота : 48,0 КГц
Частота кадров : 31,250 кадров/сек (1536 SPF)
Битовая глубина : 16 бит
Метод сжатия : С потерями
Размер потока : 279 Мбайт (19%)
Выравнивание : Разделение по промежуткам
Продолжительность промежутка : 42 мс. (1,00 видеокадр)
Время предзагрузки промежутка : 500 мс.
ServiceKind/String : Complete Main
Download / Скачать

Хотите скачать бесплатно? Зарегистрируйтесь на сайте (ссылка на регистрацию). Pirat.ca - самый быстрый торрент трекер в рунете!

Как скачивать  ·   Что такое торрент  ·   Рейтинг и ограничения



Последний раз редактировалось: Су-34 (2018-12-08 22:19), всего редактировалось 2 раз(а)

cv1979

Морской Волк

Пост 09-Дек-2018 14:03 (спустя 22 часа)

[Q] 

спасибо. Пиратка рулит! Лови бочку
[Профиль]  [ЛС] 

bull271174New

Штурман

Пост 09-Дек-2018 18:04 (спустя 4 часа)

[Q] 

Кто посмотрел, как фильм?
[Профиль]  [ЛС] 

jumpersky

Легенда

Пост 10-Дек-2018 20:30 (спустя 1 день 2 часа)

[Q] 

кино хорошее на один раз...к сожалению так не бывает по жизни... Лови бочку
[Профиль]  [ЛС] 

slon7777

Юнга

Пост 13-Дек-2018 20:24 (спустя 2 дня 23 часа)

[Q] 

норм.Смотреть можно.
[Профиль]  [ЛС] 
Показать сообщения:    
Ответить на тему

Текущее время: Сегодня 01:12

Часовой пояс: GMT + 4



Вы не можете начинать темы
Вы не можете отвечать на сообщения
Вы не можете редактировать свои сообщения
Вы не можете удалять свои сообщения
Вы не можете голосовать в опросах
Вы не можете прикреплять файлы к сообщениям
Вы не можете скачивать файлы

Майнать ▼