Пришелец (Александр Куликов) [2018, приключения, фантастика, драма, WEB-DLRip] Не требуется [Русский]

Ответить на тему
 
Автор
Сообщение

Пост 03-Дек-2018 20:20

[Q] 

Су-34

Легенда

Пришелец
-
Год выпуска: 2018
Страна: Россия
Жанр: приключения, фантастика, драма
Продолжительность: 01:31:04
Перевод: Не требуется [Русский]- Режиссер: Александр Куликов- В ролях:
-Андрей Смоляков, Юрий Цурило, Григорий Сиятвинда, Максим Виторган, Александр Куликов, Анна Банщикова, Евгения Шипова (ведущая телеканала)- Описание:
В результате цепи трагических случайностей на далекой планете в одиночестве оказывается космонавт. Его жизнь находится в постоянной опасности. Нечто необъяснимое, вступившее с ним в контакт, навсегда изменит его. С этой минуты он станет потерянным и для себя и для людей.-https://www.kinopoisk.ru/film/1118067/
http://sendfile.su/1459151- Качество: WEB-DLRip
Формат: AVI
Видео кодек: XviD
Аудио кодек: AC3
Видео: XviD, 720x304 (2.35:1), 1902 kbps, 23,976 fps, 0,363 bpp
Аудио: AC3 / 5.1 / 48 kHz / 384 kbps /-
General
Complete name : Z:\Torrents\Пришелец.2018.WEB-DLRip.1.46GbMegaPeer.avi
Format : AVI
Format/Info : Audio Video Interleave
File size : 1.46 GiB
Duration : 1 h 31 min
Overall bit rate : 2 296 kb/s
Writing application : VirtualDubMod 1.5.10.3 | www.virtualdub-fr.org || (build 2550/release)
Writing library : VirtualDubMod build 2550/release
Video
ID : 0
Format : MPEG-4 Visual
Format profile : Advanced [email protected]
Format settings, BVOP : 1
Format settings, QPel : No
Format settings, GMC : No warppoints
Format settings, Matrix : Custom
Codec ID : XVID
Codec ID/Hint : XviD
Duration : 1 h 31 min
Bit rate : 1 903 kb/s
Width : 720 pixels
Height : 304 pixels
Display aspect ratio : 2.35:1
Frame rate : 23.976 (24000/1001) FPS
Color space : YUV
Chroma subsampling : 4:2:0
Bit depth : 8 bits
Scan type : Progressive
Compression mode : Lossy
Bits/(Pixel*Frame) : 0.363
Stream size : 1.21 GiB (83%)
Writing library : XviD 73
Audio
ID : 1
Format : AC-3
Format/Info : Audio Coding 3
Mode extension : CM (complete main)
Format settings, Endianness : Big
Codec ID : 2000
Duration : 1 h 31 min
Bit rate mode : Constant
Bit rate : 384 kb/s
Channel(s) : 6 channels
Channel positions : Front: L C R, Side: L R, LFE
Sampling rate : 48.0 kHz
Frame rate : 31.250 FPS (1536 spf)
Compression mode : Lossy
Stream size : 250 MiB (17%)
Alignment : Split accross interleaves
Interleave, duration : 42 ms (1.00 video frame)
Interleave, preload duration : 500 ms
Download / Скачать

Хотите скачать бесплатно? Зарегистрируйтесь на сайте (ссылка на регистрацию). Pirat.ca - самый быстрый торрент трекер в рунете!

Как скачивать  ·   Что такое торрент  ·   Рейтинг и ограничения



Последний раз редактировалось: Су-34 (2018-12-04 19:13), всего редактировалось 1 раз

koljan-2008

Гроза морей

10

Пост 04-Дек-2018 14:04 (спустя 17 часов)

[Q] 

По описанию вроде нормальный, качаю, посмотрим. Лови бочку

_________________
Нужно лишь верить в мечту. Искренне верить! И тогда всё получится!
[Профиль]  [ЛС] 

kinstintin

Легенда

Пост 04-Дек-2018 20:26 (спустя 6 часов)

[Q] 

посмотрим, заценим...
[Профиль]  [ЛС] 

SM 96

Легенда

Пост 04-Дек-2018 20:49 (спустя 22 минуты)

[Q] 

Спасибо!!! Лови бочку
[Профиль]  [ЛС] 

clark

Флибустьер

Пост 04-Дек-2018 22:21 (спустя 1 час 32 минуты)

[Q] 

спасибо глянем

_________________
Последним смеётся тот, кто стреляет первым.
[Профиль]  [ЛС] 

Jekki

Шкипер

42

Пост 04-Дек-2018 22:36 (спустя 14 минут)

[Q] 

Фильм на один раз. Наши попытались переснять Марсианина. Местами глупо, местами наивно.
Смотрел только из интереса, что у них получится.
[Профиль]  [ЛС] 

bull271174New

Штурман

Пост 05-Дек-2018 06:42 (спустя 8 часов)

[Q] 

Супер! Спасибо!!! Заценим
[Профиль]  [ЛС] 

Urlhtml

Корсар

Пост 05-Дек-2018 19:16 (спустя 12 часов)

[Q] 

Респект автору буду качать Лови бочку
[Профиль]  [ЛС] 

alersander

Корсар

Пост 05-Дек-2018 23:24 (спустя 4 часа)

[Q] 

Спасибо. Лови бочку
[Профиль]  [ЛС] 

wyaticsh

Штурман

Пост 06-Дек-2018 10:11 (спустя 10 часов)

[Q] 

Спасибо!
Рейтинг низковат. Актёры заезженные не для Марса. По ЦУПу бегают "Ищейка" (А. Банщикова), А Смоляков ("Штрафбат"), возвращая наше воображение с Марса в нашу коррумпированную действительность. Главный герой на Марсе А.Чапаев! (хорошо, что не Василий). Видеомагнат - Борис Моисеев! Правда его в лицо так и не показали.
Чиновники, как будто из нашей вороватой думы. С такими до Марса не долетишь. Вобщем, фантастический винегрет. Но создатели фильма хотели донести до нас идею, что мы на земле намного оскотинились...
[Профиль]  [ЛС] 

Dmitriy1881

Корсар

Пост 06-Дек-2018 10:44 (спустя 32 минуты)

[Q] 

спасибо, плглядим
[Профиль]  [ЛС] 

ntvsx

Морской Волк

Пост 06-Дек-2018 21:03 (спустя 10 часов)

[Q] 

Глянул минуты три... больше не смог...полное уг. За раздачу спасибо.
[Профиль]  [ЛС] 

Brainnl

Лоцман

Пост 07-Дек-2018 19:57 (спустя 22 часа)

[Q] 

32
[Профиль]  [ЛС] 

sbrnd

Штурман

Пост 08-Дек-2018 18:37 (спустя 22 часа)

[Q] 

надеюсь какчество норм?
не экранка?
[Профиль]  [ЛС] 

tretru

Штурман

Пост 09-Дек-2018 13:41 (спустя 19 часов)

[Q] 

фильм полное унылое гавно
[Профиль]  [ЛС] 

bull271174New

Штурман

Пост 09-Дек-2018 18:00 (спустя 4 часа)

[Q] 

Один раз можно посмотреть.
[Профиль]  [ЛС] 

anti-blood

Лоцман

Пост 10-Дек-2018 00:13 (спустя 6 часов)

[Q] 

Очередной российский тухляк
[Профиль]  [ЛС] 

feldorius

Корсар

Пост 10-Дек-2018 17:42 (спустя 17 часов)

[Q] 

Унылая фигня. Я потратил жизнь на эту хрень. Досадно.
[Профиль]  [ЛС] 

woger68

Корсар

Пост 17-Дек-2018 20:01 (спустя 7 дней)

[Q] 

Главное, это наше ... но!
Полный бред с таким зарядом негатива, что все вянет!
[Профиль]  [ЛС] 
Показать сообщения:    
Ответить на тему

Текущее время: Сегодня 09:10

Часовой пояс: GMT + 4



Вы не можете начинать темы
Вы не можете отвечать на сообщения
Вы не можете редактировать свои сообщения
Вы не можете удалять свои сообщения
Вы не можете голосовать в опросах
Вы не можете прикреплять файлы к сообщениям
Вы не можете скачивать файлы

Майнать ▼