Поиск / Searching (Аниш Чаганти / Aneesh Chaganty) [2018, триллер, драма, детектив, WEB-DLRip] Dub (iTunes)

Ответить на тему
 
Автор
Сообщение

Пост 11-Ноя-2018 19:32

[Q] 

Су-34

Легенда

Поиск / Searching «Он просто пропустил последний звонок своей дочери»- -
Год выпуска: 2018
Страна: США, Россия
Жанр: триллер, драма, детектив
Продолжительность: 01:42:21
Перевод: Дублированный [iTunes]
Субтитры: нет
Оригинальная аудиодорожка: нет- Режиссер: Аниш Чаганти / Aneesh Chaganty- В ролях:
-Джон Чо (David Kim), Сара Сон (Pamela Nam Kim), Алекс Джейн Гоу (Young Margot (5 yrs)), Меган Лью (Young Margot (7 yrs)), Кайя Доун Лау (Young Margot (9 yrs)), Мишель Ла (Margot), Джозеф Ли (Peter), Доминик Хоффман (Michael Porter), Сильвия Минасян (Mrs. Shahinian, озвучка), Мелисса Дисней (Isaac's Mom, озвучка), Коннор Макрэйт (Isaac), Колин Вуделл (911 Operator, озвучка)- Описание:
16-летняя дочь Дэвида Кима пропадает без следа, полиция разводит руками. Отчаявшийся отец взламывает компьютер девочки, чтобы понять, что он ничего не знает про дочь...-http://sendfile.su/1454621
https://www.kinopoisk.ru/film/poisk-2018-970196/
https://www.imdb.com/title/tt7668870/- Качество: WEB-DLRip
Формат: AVI
Видео кодек: XviD
Аудио кодек: AC3
Видео: XviD, 704x400 (16:9), 1652 kbps, 23,976 fps, 0,245 bpp
Аудио: AC3 / 5.1 / 48 kHz / 384 kbps /-
General
Complete name : Z:\Torrents\Searching.2018.WEB-DLRip.1.46Gb.MegaPeer.avi
Format : AVI
Format/Info : Audio Video Interleave
File size : 1.46 GiB
Duration : 1 h 42 min
Overall bit rate : 2 046 kb/s
Writing application : VirtualDubMod 1.5.10.3 | www.virtualdub-fr.org || (build 2550/release)
Writing library : VirtualDubMod build 2550/release
Video
ID : 0
Format : MPEG-4 Visual
Format profile : Advanced [email protected]
Format settings, BVOP : 1
Format settings, QPel : No
Format settings, GMC : No warppoints
Format settings, Matrix : Custom
Codec ID : XVID
Codec ID/Hint : XviD
Duration : 1 h 42 min
Bit rate : 1 652 kb/s
Width : 704 pixels
Height : 400 pixels
Display aspect ratio : 16:9
Frame rate : 23.976 (24000/1001) FPS
Color space : YUV
Chroma subsampling : 4:2:0
Bit depth : 8 bits
Scan type : Progressive
Compression mode : Lossy
Bits/(Pixel*Frame) : 0.245
Stream size : 1.18 GiB (81%)
Writing library : XviD 73
Audio
ID : 1
Format : AC-3
Format/Info : Audio Coding 3
Mode extension : CM (complete main)
Format settings, Endianness : Big
Codec ID : 2000
Duration : 1 h 42 min
Bit rate mode : Constant
Bit rate : 384 kb/s
Channel(s) : 6 channels
Channel positions : Front: L C R, Side: L R, LFE
Sampling rate : 48.0 kHz
Frame rate : 31.250 FPS (1536 spf)
Compression mode : Lossy
Stream size : 281 MiB (19%)
Alignment : Split accross interleaves
Interleave, duration : 42 ms (1.00 video frame)
Interleave, preload duration : 500 ms
Download / Скачать

Хотите скачать бесплатно? Зарегистрируйтесь на сайте (ссылка на регистрацию). Pirat.ca - самый быстрый торрент трекер в рунете!

Как скачивать  ·   Что такое торрент  ·   Рейтинг и ограничения

Chuma

Шкипер

Пост 11-Ноя-2018 22:53 (спустя 3 часа)

[Q] 

Отличный фильм, показывающий всю суть нашей цифровой жизни.
Так же снят он с видом из "гаджетов", очень приятно или даже привычно :)
[Профиль]  [ЛС] 

balex26

Корсар

158

Пост 12-Ноя-2018 04:27 (спустя 5 часов)

[Q] 

Интересная история, скажем до последнего держит интригу.. Мне понравилось Лови бочку
[Профиль]  [ЛС] 

koljan-2008

Гроза морей

10

Пост 12-Ноя-2018 13:58 (спустя 9 часов)

[Q] 

Заинтриговало описание и коменты. Качаю, гляну. Позже отпишусь. Лови бочку

_________________
Нужно лишь верить в мечту. Искренне верить! И тогда всё получится!
[Профиль]  [ЛС] 

Су-34 ®

Легенда

15827

Пост 12-Ноя-2018 17:39 (спустя 3 часа)

[Q] 

Спасибо за спасибо мужики!
831803Кто поблагодарил: 25 пользователей
[Профиль]  [ЛС] 

Dapta

Штурман

Пост 12-Ноя-2018 18:28 (спустя 49 минут)

[Q] 

А вот кинишка, кому кинишка.
[Профиль]  [ЛС] 

SM 96

Легенда

Пост 12-Ноя-2018 19:22 (спустя 54 минуты)

[Q] 

Супер! Лови бочку
[Профиль]  [ЛС] 

mechlek

Морской Волк

Пост 13-Ноя-2018 10:16 (спустя 14 часов)

[Q] 

Мне понравилось. Спасибо. Лови бочку
[Профиль]  [ЛС] 

moscowpan

Гроза морей

4486

Пост 13-Ноя-2018 18:51 (спустя 8 часов)

[Q] 

неуш-то США, Россия?
Глянем

_________________
[Профиль]  [ЛС] 

moscowpan

Гроза морей

4486

Пост 14-Ноя-2018 12:00 (спустя 17 часов)

[Q] 

Кстати ничего так, современно: все наёОЙ в интернете. Особенно доставляет заставка Безмятежность с XP первым кадром
!Андря писал(а):

культурнее будьте

_________________
[Профиль]  [ЛС] 

Мания величия

Корсар

Пост 15-Ноя-2018 01:04 (спустя 13 часов)

[Q] 

как говорится то ли еще будет...

_________________
[Профиль]  [ЛС] 

MaXoR

Гроза морей

1550

Пост 15-Ноя-2018 12:29 (спустя 11 часов)

[Q] 

Спасибо за релиз, бочка на палубе! Похожие фильмы чую были уже. От Бекмамбетова что-то подобное, но этот с удовольствием посмотрю.

_________________
Живы будем - не помрем!
[Профиль]  [ЛС] 

bodomsaratau

Морской Волк

Пост 15-Ноя-2018 23:11 (спустя 10 часов)

[Q] 

будем посмотреть) Спасибо!!!
[Профиль]  [ЛС] 

lightmaster

Гроза морей

Пост 15-Ноя-2018 23:30 (спустя 18 минут)

[Q] 

Гляну на выходных Раздающему респект!
[Профиль]  [ЛС] 

bodomsaratau

Морской Волк

Пост 16-Ноя-2018 16:45 (спустя 17 часов)

[Q] 

посмотрел,сюжет очень похож на сериал "Safe/Безопасность/Омут". совпадает даже в мелких деталях порой
[Профиль]  [ЛС] 

donafill777

Юнга

Пост 18-Ноя-2018 15:29 (спустя 1 день 22 часа)

[Q] 

Смотреть стоит! Сам смотрел!
[Профиль]  [ЛС] 

redfield

Корсар

Пост 24-Ноя-2018 18:53 (спустя 6 дней)

[Q] 

Ново, интересно и не прямолинейно, стоит внимания.
[Профиль]  [ЛС] 

feldorius

Корсар

Пост 25-Ноя-2018 22:48 (спустя 1 день 3 часа)

[Q] 

Ненавижу фильмы, снятые подобным образом (а ля псевдодокументалка).
Думал никому не зайдет, а людям зашло ))
Счастливые вы )
[Профиль]  [ЛС] 

SGSoft

Флибустьер

Пост 08-Дек-2018 21:30 (спустя 12 дней)

[Q] 

В целом - понравился фильм. Все не так просто, а если сравнивать с действиями родителей - они везде одинаковы.
[Профиль]  [ЛС] 

Hippopotam

Флибустьер

Пост 09-Дек-2018 12:58 (спустя 15 часов)

[Q] 

Очень неплохо. Смотрел с интересом. Спасибо!!! Лови бочку
[Профиль]  [ЛС] 
Показать сообщения:    
Ответить на тему

Текущее время: Сегодня 06:21

Часовой пояс: GMT + 4



Вы не можете начинать темы
Вы не можете отвечать на сообщения
Вы не можете редактировать свои сообщения
Вы не можете удалять свои сообщения
Вы не можете голосовать в опросах
Вы не можете прикреплять файлы к сообщениям
Вы не можете скачивать файлы

Майнать ▼