СуперБобровы. Народные мстители (Дмитрий Дьяченко) [2017 г., комедия, семейный, WEB-DLRip]

Ответить на тему
 
Автор
Сообщение

Пост 06-Дек-2018 20:49

[Q] 

Су-34

Легенда

СуперБобровы. Народные мстители-- -Производство: Россия
Режиссёр: Дмитрий Дьяченко
Жанр: комедия, семейный
Год выпуска: 2017 г.
Продолжительность: 01:29:12
Российская премьера: 20 октября 2018, «WDSSPR»-В ролях: Павел Деревянко, Роман Мадянов, Владимир Толоконников, Оксана Акиньшина, Ирина Пегова, Даниил Вахрушев, Елена Валюшкина, Роман Курцын, Стас Оксаний, Владимир Паршенков-Описание: Действие картины начинается в Таиланде, где семья Бобровых скрылась от правосудия. Теперь им приходится выступать в цирке-шапито, демонстрируя туристам свои суперспособности. Быть «цирковыми обезьянками» семейству явно не по душе — все хотят домой, на Родину. У Олега и Светы разлад в отношениях: она мечтает о детях, а Олегу совсем не до этого. И вот очередной скандал семьи: Олег уходит, хлопнув дверью. Возвращается, а Бобровых нет. Они уехали. Олегу приходится отправиться в Россию. На родине ему предстоит не только вновь завоевать сердце Светы, но и объединить суперсилы семейства Бобровых в схватке со злодеями планетарного масштаба, сделав из нерадивых родственников настоящих супергероев.-Сэмпл КиноПоиск-Качество видео: WEB-DLRip
Контейнер: AVI
Видео кодек: XviD
Аудио кодек: AC3
Видео: 720x304 (2.37:1), 24.000 fps, XviD build 73 ~1952 kbps avg, 0.37 bit/pixel
Аудио: 48 kHz, AC3 Dolby Digital, 3/2 (L,C,R,l,r) + LFE ch, ~384 kbps
Cубтитры: отсутствуют
General
Complete name : D:\СуперБобровы. Народные мстители. WEB-DLRip.avi
Format : AVI
Format/Info : Audio Video Interleave
File size : 1.46 GiB
Duration : 1 h 29 min
Overall bit rate : 2 346 kb/s
Writing application : VirtualDubMod 1.5.10.3 | www.virtualdub-fr.org || (build 2550/release)
Writing library : VirtualDubMod build 2550/release
Video
ID : 0
Format : MPEG-4 Visual
Format profile : Advanced [email protected]
Format settings : BVOP1
Format settings, BVOP : 1
Format settings, QPel : No
Format settings, GMC : No warppoints
Format settings, Matrix : Default (MPEG)
Codec ID : XVID
Codec ID/Hint : XviD
Duration : 1 h 29 min
Bit rate : 1 952 kb/s
Width : 720 pixels
Height : 304 pixels
Display aspect ratio : 2.35:1
Frame rate : 24.000 FPS
Color space : YUV
Chroma subsampling : 4:2:0
Bit depth : 8 bits
Scan type : Progressive
Compression mode : Lossy
Bits/(Pixel*Frame) : 0.372
Stream size : 1.22 GiB (83%)
Writing library : XviD 73
Audio
ID : 1
Format : AC-3
Format/Info : Audio Coding 3
Codec ID : 2000
Duration : 1 h 29 min
Bit rate mode : Constant
Bit rate : 384 kb/s
Channel(s) : 6 channels
Channel positions : Front: L C R, Side: L R, LFE
Sampling rate : 48.0 kHz
Frame rate : 31.250 FPS (1536 SPF)
Bit depth : 16 bits
Compression mode : Lossy
Stream size : 245 MiB (16%)
Alignment : Split accross interleaves
Interleave, duration : 42 ms (1.00 video frame)
Interleave, preload duratio : 500 ms
Service kind : Complete Main
Download / Скачать

Хотите скачать бесплатно? Зарегистрируйтесь на сайте (ссылка на регистрацию). Pirat.ca - самый быстрый торрент трекер в рунете!

Как скачивать  ·   Что такое торрент  ·   Рейтинг и ограничения

sbrnd

Штурман

Пост 08-Дек-2018 18:35 (спустя 1 день 21 час)

[Q] 

поглядим
Спасибо!!!
[Профиль]  [ЛС] 

Dmitriy1881

Корсар

Пост 09-Дек-2018 04:52 (спустя 10 часов)

[Q] 

посмотримс! спасибо
[Профиль]  [ЛС] 

savicus

Корсар

Пост 09-Дек-2018 21:54 (спустя 17 часов)

[Q] 

Спасибо, интересно будет посмотреть
[Профиль]  [ЛС] 

kinstintin

Легенда

Пост 11-Дек-2018 22:27 (спустя 2 дня)

[Q] 

благодарствую!!!
[Профиль]  [ЛС] 

Dmitriy1881

Корсар

Пост 13-Дек-2018 07:30 (спустя 1 день 9 часов)

[Q] 

спасибо, поглядим на досуге
[Профиль]  [ЛС] 
Показать сообщения:    
Ответить на тему

Текущее время: Сегодня 04:50

Часовой пояс: GMT + 4



Вы не можете начинать темы
Вы не можете отвечать на сообщения
Вы не можете редактировать свои сообщения
Вы не можете удалять свои сообщения
Вы не можете голосовать в опросах
Вы не можете прикреплять файлы к сообщениям
Вы не можете скачивать файлы

Майнать ▼