Уважаемый Гость!
Вы можете поддержать проект и зарегистрироваться у наших партнеров - онлайн-стратегия MyLands. При регистрации в игре Вы получите код, который сможете активировать после регистрации на pirat.ca и получить 1000 дублонов.

Ваш код:
b37e868614b5986b196b50edccc8d7d20ba31134
 
     

[Jolly Roger] Криминальное чтиво / Pulp Fiction (Квентин Тарантино / Quentin Tarantino) [1994 г., триллер, криминал, BDRip-AVC] Dub + VO [Дмитрий «Гоблин» Пучков]

Ответить на тему
 
Автор
Сообщение

Пост 21-Авг-2012 21:45

[Q] 

zyyx

-Криминальное чтиво / Pulp Fiction
«Just because you are a character doesn't mean you have character.»
-- Год выпуска: 1994 г.
Производство: США
Жанр: триллер, криминал
Продолжительность: 02:34:57
Перевод: Профессиональный (полное дублирование)
Перевод: Профессиональный (одноголосый) Дмитрий «Гоблин» Пучков
Оригинальный аудиопоток: английский
Режиссер: Квентин Тарантино / Quentin Tarantino
В ролях: Джон Траволта, Сэмюэл Л. Джексон, Брюс Уиллис, Ума Турман, Винг Реймз, Тим Рот, Харви Кейтель, Квентин Тарантино, Питер Грин, Аманда Пламмер
Описание: Двое бандитов Винсент Вега и Джулс Винфилд проводят время в философских беседах в перерыве между разборками и «решением проблем» с должниками своего криминального босса Марселласа Уоллеса. Параллельно разворачивается три истории.
В первой из них Винсент присматривает за женой Марселласа Мией и спасает ее от передозировки наркотиков. Во второй рассказывается о Бутче Кулидже, боксере, нанятом Уоллесом, чтобы сдать бой, но обманувшим его. Третья история объединяет первые две — в кафе парочка молодых неудачливых грабителей — Пампкин и Хани Бани делают попытку ограбления, но Джулс останавливает их.-- --Качество видео: BDRip-AVC
Формат видео: MKV
Видео кодек: H.264
Аудио кодек: AC3
Видео: 1024x432, 23.976fps, 1731 Kbps, 0.163 bit/pixel
Аудио #1: 48.0 KHz, 6 ch, 384 Kbps Rus / Rus
Аудио #2: 48.0 KHz, 2 ch, 192 Kbps Eng
General
Unique ID : 185983983368902585240341736026194380346 (0x8BEB3657A1CCF3BDB2BDF1F61FA5063A)
Complete name : O:\Jolly Roger\Pulp.Fiction.1994.x264.BDRip-AVC.JRG.mkv
Format : Matroska
Format version : Version 2
File size : 2.91 GiB
Duration : 2h 34mn
Overall bit rate : 2 691 Kbps
Movie name : Pulp Fiction (1994) - The Jolly Roger by Pirat.Ca [zyyx]
Encoded date : UTC 2012-08-21 17:30:46
Writing application : mkvmerge v4.9.1 ('Ich will') сборка от Jul 11 2011 23:53:15
Writing library : libebml v1.2.1 + libmatroska v1.1.1
Video
ID : 1
Format : AVC
Format/Info : Advanced Video Codec
Format profile : [email protected]
Format settings, CABAC : Yes
Format settings, ReFrames : 16 frames
Codec ID : V_MPEG4/ISO/AVC
Duration : 2h 34mn
Bit rate : 1 731 Kbps
Width : 1 024 pixels
Height : 432 pixels
Display aspect ratio : 2.40:1
Frame rate : 23.976 fps
Color space : YUV
Chroma subsampling : 4:2:0
Bit depth : 8 bits
Scan type : Progressive
Bits/(Pixel*Frame) : 0.163
Stream size : 1.82 GiB (62%)
Title : R.G. Jolly Roger
Writing library : x264 core 116 r2044 392e762
Encoding settings : cabac=1 / ref=16 / deblock=1:-1:-1 / analyse=0x3:0x113 / me=umh / subme=9 / psy=1 / psy_rd=1.00:0.10 / mixed_ref=1 / me_range=64 / chroma_me=1 / trellis=1 / 8x8dct=1 / cqm=0 / deadzone=21,11 / fast_pskip=0 / chroma_qp_offset=-3 / threads=16 / sliced_threads=0 / nr=0 / decimate=1 / interlaced=0 / bluray_compat=0 / constrained_intra=0 / bframes=16 / b_pyramid=2 / b_adapt=2 / b_bias=0 / direct=3 / weightb=1 / open_gop=0 / weightp=2 / keyint=250 / keyint_min=23 / scenecut=40 / intra_refresh=0 / rc_lookahead=50 / rc=2pass / mbtree=1 / bitrate=1731 / ratetol=1.0 / qcomp=0.70 / qpmin=0 / qpmax=69 / qpstep=4 / cplxblur=20.0 / qblur=0.5 / ip_ratio=1.40 / aq=1:1.00
Default : Yes
Forced : No
Audio #1
ID : 2
Format : AC-3
Format/Info : Audio Coding 3
Mode extension : CM (complete main)
Format settings, Endianness : Big
Codec ID : A_AC3
Duration : 2h 34mn
Bit rate mode : Constant
Bit rate : 384 Kbps
Channel(s) : 6 channels
Channel positions : Front: L C R, Side: L R, LFE
Sampling rate : 48.0 KHz
Bit depth : 16 bits
Compression mode : Lossy
Stream size : 426 MiB (14%)
Language : Russian
Default : Yes
Forced : No
Audio #2
ID : 3
Format : AC-3
Format/Info : Audio Coding 3
Mode extension : CM (complete main)
Format settings, Endianness : Big
Codec ID : A_AC3
Duration : 2h 34mn
Bit rate mode : Constant
Bit rate : 384 Kbps
Channel(s) : 6 channels
Channel positions : Front: L C R, Side: L R, LFE
Sampling rate : 48.0 KHz
Bit depth : 16 bits
Compression mode : Lossy
Stream size : 426 MiB (14%)
Language : Russian
Default : No
Forced : No
Audio #3
ID : 4
Format : AC-3
Format/Info : Audio Coding 3
Mode extension : CM (complete main)
Format settings, Endianness : Big
Codec ID : A_AC3
Duration : 2h 34mn
Bit rate mode : Constant
Bit rate : 192 Kbps
Channel(s) : 2 channels
Channel positions : Front: L R
Sampling rate : 48.0 KHz
Bit depth : 16 bits
Compression mode : Lossy
Stream size : 213 MiB (7%)
Language : English
Default : No
Forced : No









--
Download / Скачать

Хотите скачать бесплатно? Зарегистрируйтесь на сайте (ссылка на регистрацию). Pirat.ca - самый быстрый торрент трекер в рунете!

Как скачивать  ·   Что такое торрент  ·   Рейтинг и ограничения

dmsushko

Корсар

172

Пост 21-Авг-2012 23:10 (спустя 1 час 25 минут)

[Q] 


_________________

[Профиль]  [ЛС] 

Сухофрукт

Гроза морей

273

Пост 22-Авг-2012 10:17 (спустя 11 часов)

[Q] 

[Профиль]  [ЛС] 

Gesichtslos

80

Пост 22-Авг-2012 21:38 (спустя 11 часов)

[Q] 


_________________
[Профиль]  [ЛС] 

Soviet DJ

Корсар

Пост 24-Авг-2012 13:52 (спустя 1 день 16 часов)

[Q] 

Если Гоблин - то нужно смотреть! Классный правильный перевод!

_________________
Мы - Soviet DJ's, господа!
[Профиль]  [ЛС] 

Wolf111

59071

Пост 18-Сен-2012 17:57 (спустя 25 дней)

[Q] 

Помогу раздавать
[Профиль]  [ЛС] 

Maniac93

Корсар

Пост 11-Ноя-2012 14:52 (спустя 1 месяц 22 дня)

[Q] 

Стыдно мне - 20й год жизни пошел, а до данной классики мировой киноиндустрии руки так и не дошли.
Спасибо за раздачу!
[Профиль]  [ЛС] 

Йожыг

Штурман

Пост 07-Апр-2013 11:48 (спустя 4 месяца 25 дней)

[Q] 


_________________
[Профиль]  [ЛС] 

rorome

Штурман

Пост 11-Май-2013 20:10 (спустя 1 месяц 4 дня)

[Q] 

[Профиль]  [ЛС] 

[email protected]

Корсар

Пост 01-Авг-2013 19:05 (спустя 2 месяца 20 дней)

[Q] 

Спасибо!!! Супер! !COOL!
[Профиль]  [ЛС] 

Прораб

Легенда

Пост 28-Авг-2013 20:22 (спустя 27 дней)

[Q] 

!COOL! Лови бочку
[Профиль]  [ЛС] 

Лёнчик-80

Морской Волк

Пост 09-Янв-2014 19:57 (спустя 4 месяца 11 дней)

[Q] 

Всем качать!!! Спасибо!!! !!!
[Профиль]  [ЛС] 

UncleFather

Легенда

Пост 22-Янв-2014 20:43 (спустя 13 дней)

[Q] 

Первый раз было ваааще интересно смотреть. Потом - просто - нормально

_________________
Одни боялись Пью, другие - Билли Бонса, а меня... меня боялся сам Флинт
[Профиль]  [ЛС] 

Dejavu_Dmitry

Морской Волк

Пост 16-Фев-2014 22:37 (спустя 25 дней)

[Q] 

Давно хотел посмотреть. Спасибо за раздачку.
[Профиль]  [ЛС] 

milana777

Пост 02-Мар-2014 13:16 (спустя 13 дней)

[Q] 

Обожаю этот фильм. Переводы Гоблина - Супер!
[Профиль]  [ЛС] 

Luppi

Шкипер

11

Пост 26-Апр-2014 11:12 (спустя 1 месяц 23 дня)

[Q] 

Это шедевр! Раздающему респект! Лови бочку
[Профиль]  [ЛС] 

vlaadd

Шкипер

Пост 02-Сен-2014 00:30 (спустя 4 месяца 5 дней)

[Q] 

Автору респект!!! Фильм изумительный! Не знаю сколько раз я его смотрел и сколько б еще пересматривал, но к сожалению ребенок копаясь в компе мне его удалила. Закачаю снова. Он того стоит. Спасибо за раздачу.

_________________

Всё будет хорошо - мы все умрём
[Профиль]  [ЛС] 

vk

Шкипер

Пост 12-Дек-2014 02:52 (спустя 3 месяца 9 дней)

[Q] 

Захотелось еще раз просмотреть классику.
Спасибо за отличное качество, Jolly Roger как всегда на высоте!
[Профиль]  [ЛС] 

one of nobody

Штурман

Пост 25-Янв-2015 15:43 (спустя 1 месяц 13 дней)

[Q] 

спасибо за раздачу! Всем качать!!!
[Профиль]  [ЛС] 

tubuc

Корсар

105

Пост 27-Мар-2016 10:22 (спустя 1 год 2 месяца)

[Q] 

Фильм отличный Спасибо!!!
[Профиль]  [ЛС] 

Great_ICE_X

Морской Волк

Пост 25-Июн-2016 00:34 (спустя 2 месяца 28 дней)

[Q] 

до сих пор не смотрел, но посмотрю с удовольствием!
[Профиль]  [ЛС] 
Показать сообщения:    
Ответить на тему

Текущее время: Сегодня 15:02

Часовой пояс: GMT + 4



Вы не можете начинать темы
Вы не можете отвечать на сообщения
Вы не можете редактировать свои сообщения
Вы не можете удалять свои сообщения
Вы не можете голосовать в опросах
Вы не можете прикреплять файлы к сообщениям
Вы не можете скачивать файлы

▼ Вниз