Уважаемый Гость!
Вы можете поддержать проект и зарегистрироваться у наших партнеров - онлайн-стратегия MyLands. При регистрации в игре Вы получите код, который сможете активировать после регистрации на pirat.ca и получить 1000 дублонов.

Ваш код:
97fa0117a29d78216176c2d79b04e60d770c7433
 
     

Леопард / Il gattopardo (Лукино Висконти / Luchino Visconti) [1963 г., Драма, история, военный, DVDRip] (MVO)

Ответить на тему
 
Автор
Сообщение

Пост 11-Дек-2011 15:53

[Q] 

Linnan

Леопард / Il gattopardo
Год выпуска: 1963
Производство: Франция, Италия
Жанр: Драма, история, военный
Продолжительность: 02:57:42
Перевод: Профессиональный многоголосый закадровый
Оригинальный аудиопоток: Итальянский
Субтитры: Русские
Режиссер: Лукино Висконти / Luchino Visconti
В ролях: Берт Ланкастер, Клаудия Кардинале, Ален Делон, Паоло Стоппа, Рина Морелли, Ромоло Валли, Теренс Хилл, Пьер Клементи, Люсилла Морлачи, Джулиано Джемма
Описание: В мае 1860 года в Италии разгорается гражданская война между республиканцами, сторонниками Гарибальди, и приверженцами правящей династии Бурбонов. Князь Фабрицио ди Салина, сицилийский феодал, образованный и мудрый аристократ-интеллектуал, с пониманием и пессимизмом относится к происходящим переменам.
Поэтому, когда его молодой племянник Танкреди сначала вступает в ряды мятежников-гарибальдийцев, а затем становится офицером короля Савойского, дон Фабрицио не осуждает его. Сам князь Салина не хочет активно участвовать в политической борьбе. Он прекрасно осознает неизбежность происходящих больших перемен и чувствует, что его время «леопардов» и «львов» — уходит.
«Я принадлежу к уходящему классу, я свободен от иллюзий и не способен к самообману, — говорит он. Мы — леопарды, львы. Те, кто придет на смену, будут шакалами, гиенами».
Источник/Качество: DVDRip
Формат: MKV
Видео кодек: XviD
Аудио кодек: АС-3
Видео: 704х288, 25 fps, 753 kbps, 0.149 b/px
Аудио: Русский - 192 kbps, 2 ch, 48 КHz
Аудио #2: Итальянский - 192 kbps, 2 ch, 48 КHz
Общее
Уникальный идентификатор : 248380775748954635115708780745529921219 (0xBADC65B98C907F0F832A0ED833BE8EC3)
Полное имя : F:\Загрузки торрента\Il gattopardo.mkv
Формат : Matroska
Версия формата : Version 2
Размер файла : 1,44 Гбайт
Продолжительность : 2 ч. 57 м.
Общий поток : 1160 Кбит/сек
Дата кодирования : UTC 2011-12-11 09:53:07
Программа кодирования : mkvmerge v2.8.0 ('The Tree') built on May 9 2009 18:02:06
Библиотека кодирования : libebml v0.7.7 + libmatroska v0.8.1
Видео
Идентификатор : 1
Формат : MPEG-4 Visual
Профиль формата : Advanced [email protected]
Параметр BVOP формата : Да
Параметр QPel формата : Нет
Параметр GMC формата : Без точки перехода
Параметр матрицы формата : Default (H.263)
Идентификатор кодека : XVID
Идентификатор кодека/Подсказка : XviD
Продолжительность : 2 ч. 57 м.
Битрейт : 753 Кбит/сек
Ширина : 704 пикселя
Высота : 288 пикселей
Соотношение сторон : 2,40:1
Частота кадров : 25,000 кадров/сек
Цветовое пространство : YUV
Субдискретизация насыщенности : 4:2:0
Битовая глубина : 8 бит
Тип развёртки : Прогрессивная
Метод сжатия : С потерями
Бит/(Пиксели*Кадры) : 0.149
Размер потока : 957 Мбайт (65%)
Библиотека кодирования : XviD 1.0.3 (UTC 2004-12-20)
Аудио #1
Идентификатор : 2
Формат : AC-3
Формат/Информация : Audio Coding 3
Расширение режима : CM (complete main)
Идентификатор кодека : A_AC3
Продолжительность : 2 ч. 57 м.
Вид битрейта : Постоянный
Битрейт : 192 Кбит/сек
Каналы : 2 канала
Расположение каналов : Front: L R
Частота : 48,0 КГц
Битовая глубина : 16 бит
Метод сжатия : С потерями
Размер потока : 244 Мбайт (17%)
Язык : Russian
Аудио #2
Идентификатор : 3
Формат : AC-3
Формат/Информация : Audio Coding 3
Расширение режима : CM (complete main)
Идентификатор кодека : A_AC3
Продолжительность : 2 ч. 57 м.
Вид битрейта : Постоянный
Битрейт : 192 Кбит/сек
Каналы : 2 канала
Расположение каналов : Front: L R
Частота : 48,0 КГц
Битовая глубина : 16 бит
Метод сжатия : С потерями
Размер потока : 244 Мбайт (17%)
Язык : Italian
Текст
Идентификатор : 4
Формат : UTF-8
Идентификатор кодека : S_TEXT/UTF8
Идентификатор кодека/Информация : UTF-8 Plain Text
Язык : Russian


Download / Скачать

Хотите скачать бесплатно? Зарегистрируйтесь на сайте (ссылка на регистрацию). Pirat.ca - самый быстрый торрент трекер в рунете!

Как скачивать  ·   Что такое торрент  ·   Рейтинг и ограничения

Пост 11-Дек-2011 16:05 (спустя 11 минут)

Топик был перенесен из форума Художественные фильмы (Зарубежное кино) в форум Старые фильмы (до 1970 г.)

Skinwalker
 

Linnan ®

2653

Пост 11-Дек-2011 16:06 (спустя 12 минут)

[Q] 

Если нужно двд, с которого был сделан этот рип - могу раздать

_________________

По ночам не раздаю
[Профиль]  [ЛС] 
Показать сообщения:    
Ответить на тему

Текущее время: Сегодня 09:38

Часовой пояс: GMT + 4



Вы не можете начинать темы
Вы не можете отвечать на сообщения
Вы не можете редактировать свои сообщения
Вы не можете удалять свои сообщения
Вы не можете голосовать в опросах
Вы не можете прикреплять файлы к сообщениям
Вы не можете скачивать файлы

▼ Вниз