Уважаемый Гость!
Вы можете поддержать проект и зарегистрироваться у наших партнеров - онлайн-стратегия MyLands. При регистрации в игре Вы получите код, который сможете активировать после регистрации на pirat.ca и получить 1000 дублонов.

Ваш код:
a9b349baa57de7d7adaf58bb190f2e1f2f1d50db
 
     

[Jolly Roger] Пастырь / Priest (Скотт Чарльз Стюарт / Scott Charles Stewart) [2011 г., Ужасы, фантастика, боевик, триллер, BDRip-AVC] Dub [Лицензия]

Ответить на тему
 
Автор
Сообщение

Пост 15-Сен-2012 16:37

[Q] 

Amethyst

Гроза морей

-Пастырь / Priest
«И один в поле воин»
-- Год выпуска: 2011 г.
Мировая премьера: 5 мая 2011
Российская премьера: 7 мая 2011, «WDSSPR»
Дата выхода DVD: 9 июня 2011, «Columbia/Sony»
Дата выхода Blu-Ray: 13 сентября 2011, «Columbia/Sony»
Производство: США / Buckaroo Entertainment, Michael De Luca Productions
Жанр: Ужасы, фантастика, боевик, триллер
Продолжительность: 01:27:27
Перевод: Профессиональный (полное дублирование) [Лицензия]
Оригинальный аудиопоток: Английский
Режиссер: Скотт Чарльз Стюарт / Scott Charles Stewart
В ролях: Пол Беттани, Карл Урбан, Кэм Жиганде, Мэгги Кью, Лили Коллинз, Кристофер Пламмер, Стивен Мойер и др.

Описание: Далекое будущее. Миром правят религия и церковь. Священник, нарушая все церковные запреты, пытается выследить банду вампиров, похитивших его племянницу. В поисках ему помогают шериф и монахиня.-- --Качество видео: BDRip-AVC
Формат видео: MKV
Видео кодек: H.264
Аудио кодек: AC3
Видео: 1040x432 (2.40:1), 23.976 fps, 2461 Kbps
Аудио: 48.0 KHz, 6 ch, 448 Kbps Rus/Eng
Общее
Уникальный идентификатор : 229869891751706677488881409296514048597 (0xACEF54AE3EB2E4AE87E0F26402326255)
Полное имя : D:\Торенты\Priest.2011.x264.BDRip.JRG.mkv
Формат : Matroska
Версия формата : Version 2
Размер файла : 2,05 Гбайт
Продолжительность : 1 ч. 27 м.
Общий поток : 3358 Кбит/сек
Название фильма : Priest.2011.x264.BDRip.JRG
Дата кодирования : UTC 2012-09-15 02:50:23
Программа кодирования : mkvmerge v4.9.1 ('Ich will') сборка от Jul 11 2011 23:53:15
Библиотека кодирования : libebml v1.2.1 + libmatroska v1.1.1
Видео
Идентификатор : 1
Формат : AVC
Формат/Информация : Advanced Video Codec
Профиль формата : [email protected]
Параметр CABAC формата : Да
Параметр ReFrames формата : 12 кадров
Режим смешивания : Header stripping
Идентификатор кодека : V_MPEG4/ISO/AVC
Продолжительность : 1 ч. 27 м.
Битрейт : 2461 Кбит/сек
Ширина : 1040 пикселей
Высота : 432 пикселя
Соотношение сторон : 2,40:1
Режим частоты кадров : Постоянный
Частота кадров : 23,976 кадра/сек
Цветовое пространство : YUV
Субдискретизация насыщенности : 4:2:0
Битовая глубина : 8 бит
Тип развёртки : Прогрессивная
Бит/(Пиксели*Кадры) : 0.228
Размер потока : 1,46 Гбайт (71%)
Заголовок : JRG
Библиотека кодирования : x264 core 116 r2044 392e762
Настройки программы : cabac=1 / ref=12 / deblock=1:-1:-1 / analyse=0x3:0x113 / me=umh / subme=9 / psy=1 / psy_rd=1.00:0.00 / mixed_ref=1 / me_range=32 / chroma_me=1 / trellis=1 / 8x8dct=1 / cqm=0 / deadzone=21,11 / fast_pskip=0 / chroma_qp_offset=-2 / threads=12 / sliced_threads=0 / nr=0 / decimate=1 / interlaced=0 / bluray_compat=0 / constrained_intra=0 / bframes=9 / b_pyramid=2 / b_adapt=2 / b_bias=0 / direct=3 / weightb=1 / open_gop=0 / weightp=2 / keyint=250 / keyint_min=23 / scenecut=40 / intra_refresh=0 / rc_lookahead=50 / rc=2pass / mbtree=1 / bitrate=2461 / ratetol=1.0 / qcomp=0.70 / qpmin=0 / qpmax=69 / qpstep=4 / cplxblur=20.0 / qblur=0.5 / ip_ratio=1.40 / aq=1:1.00
Default : Да
Forced : Нет
Аудио #1
Идентификатор : 2
Формат : AC-3
Формат/Информация : Audio Coding 3
Расширение режима : CM (complete main)
Параметр Endianness формата : Big
Режим смешивания : Header stripping
Идентификатор кодека : A_AC3
Продолжительность : 1 ч. 27 м.
Вид битрейта : Постоянный
Битрейт : 448 Кбит/сек
Каналы : 6 каналов
Расположение каналов : Front: L C R, Side: L R, LFE
Частота : 48,0 КГц
Битовая глубина : 16 бит
Метод сжатия : С потерями
Размер потока : 280 Мбайт (13%)
Язык : Russian
Default : Да
Forced : Нет
Аудио #2
Идентификатор : 3
Формат : AC-3
Формат/Информация : Audio Coding 3
Расширение режима : CM (complete main)
Параметр Endianness формата : Big
Режим смешивания : Header stripping
Идентификатор кодека : A_AC3
Продолжительность : 1 ч. 27 м.
Вид битрейта : Постоянный
Битрейт : 448 Кбит/сек
Каналы : 6 каналов
Расположение каналов : Front: L C R, Side: L R, LFE
Частота : 48,0 КГц
Битовая глубина : 16 бит
Метод сжатия : С потерями
Размер потока : 280 Мбайт (13%)
Язык : English
Default : Нет
Forced : Нет
-
--
Download / Скачать

Хотите скачать бесплатно? Зарегистрируйтесь на сайте (ссылка на регистрацию). Pirat.ca - самый быстрый торрент трекер в рунете!

Как скачивать  ·   Что такое торрент  ·   Рейтинг и ограничения

wonderhell

Корсар

95

Пост 15-Сен-2012 18:46 (спустя 2 часа 8 минут)

[Q] 


Забираю для коллекции...

_________________
[Профиль]  [ЛС] 

baltimor337

Корсар

Пост 15-Сен-2012 19:11 (спустя 25 минут)

[Q] 

[Профиль]  [ЛС] 

odyssey123

Флибустьер

Пост 15-Сен-2012 19:46 (спустя 34 минуты)

[Q] 

[Профиль]  [ЛС] 

allexxxv

Морской Волк

Пост 20-Сен-2012 18:26 (спустя 4 дня)

[Q] 

[Профиль]  [ЛС] 

analga

Морской Волк

Пост 22-Ноя-2012 21:50 (спустя 2 месяца 2 дня)

[Q] 

[Профиль]  [ЛС] 

naumov1312

Штурман

Пост 16-Май-2013 06:56 (спустя 5 месяцев 23 дня)

[Q] 

Хороший фантастически - мистический фильм!!! anime58
[Профиль]  [ЛС] 

Hireling

Морской Волк

Пост 17-Май-2013 19:19 (спустя 1 день 12 часов)

[Q] 

Пластырь ёпт...
[Профиль]  [ЛС] 

koolega77

Морской Волк

Пост 04-Июн-2013 21:05 (спустя 18 дней)

[Q] 

фильм норм
[Профиль]  [ЛС] 

timy

Лоцман

Пост 25-Июн-2013 23:59 (спустя 21 день)

[Q] 

норм Фильмец Посмотреть можно
[Профиль]  [ЛС] 

alexshly

Штурман

Пост 15-Июл-2013 00:59 (спустя 19 дней)

[Q] 

У этого режиссёра проблемы со сценариями (Вспомните Легион)
[Профиль]  [ЛС] 

makar8182

Корсар

Пост 16-Июл-2013 13:32 (спустя 1 день 12 часов)

[Q] 

[Профиль]  [ЛС] 

NIKROLUNGER

Флибустьер

70

Пост 03-Авг-2013 15:51 (спустя 18 дней)

[Q] 

Отличный фильм! И "легион" мне понравился. Смелый режиссёр...наверное ab
Автору aa за раздачу
[Профиль]  [ЛС] 

Dj NIKI

Флибустьер

3048

Пост 03-Сен-2013 08:19 (спустя 30 дней)

[Q] 

Интересно, а продолжение будет?

_________________
[Профиль]  [ЛС] 

maximka2006

Морской Волк

Пост 05-Сен-2013 21:23 (спустя 2 дня 13 часов)

[Q] 

Спасибо!!!
[Профиль]  [ЛС] 

Kote Makaradze

5993

Пост 13-Окт-2013 02:21 (спустя 1 месяц 7 дней)

[Q] 

Раза три посмотрел, когда душа немного устанет, ещё раз подпитаюсь энергетикой этого фильма
Сюжет основан на древнем страхе людей, и эти страхи нам с детства внушили наши предки.
Предкам надо верить, они видели больше чем мы.
Фильм о воспитании человека божественной верой.
Сильно переживал за исход. Молюсь за то, что бы нечисти противостояли сильные душой и телом, воспитанные люди.
Независимые от власти, сильные духом и с большим сердцем в груди.
Нельзя критиковать моменты. Это чувство или есть, или его нет.
Спасибо авторам.
А раздающему, респект по полной программе)))

_________________
Подпись отключена за нарушение правил форума
[Профиль]  [ЛС] 

egor2014

Шкипер

Пост 29-Окт-2013 09:58 (спустя 16 дней)

[Q] 

А раздающему, респект по полной программе)))
Спасибо!!!
[Профиль]  [ЛС] 

Kote Makaradze

5993

Пост 02-Ноя-2013 04:15 (спустя 3 дня)

[Q] 

Amethyst, Привет, я в конкурсе, пишу негляже об этом фильме.
Вообщем так, дружище.
Раза три посмотрел, когда душа немного устанет, ещё раз подпитаюсь энергетикой этого фильма
Сюжет основан на древнем страхе людей, и эти страхи нам с детства внушили наши предки.
Предкам надо верить, они видели больше чем мы.
Фильм о воспитании человека божественной верой.
Сильно переживал за исход. Молюсь за то, что бы нечисти противостояли сильные душой и телом, воспитанные люди.
Независимые от власти, сильные духом и с большим сердцем в груди.
Нельзя критиковать моменты. Это чувство или есть, или его нет.
Спасибо авторам.
Как истинный критик, заявляю: Кто не посмотрит, не поймёт, кто посмотрит в компании, не поймет, кто вообще не посмотрит, никогда ничего не поймет.
Этот фильм лучше смотреть одному. Вообщем сюжет не для всех.
Пусть много лажи, главное цель, в этом фильме она достигнута.

_________________
Подпись отключена за нарушение правил форума
[Профиль]  [ЛС] 

ROSO

Шкипер

Пост 04-Май-2014 17:20 (спустя 6 месяцев 2 дня)

[Q] 

очень хороший фильм, спасибо
[Профиль]  [ЛС] 

vova99

Штурман

Пост 16-Мар-2016 03:38 (спустя 1 год 10 месяцев)

[Q] 

Полного источника не было: 4 месяца 23 дня
Эй, вернитесь на раздачу...
[Профиль]  [ЛС] 
Показать сообщения:    
Ответить на тему

Текущее время: Сегодня 04:11

Часовой пояс: GMT + 4



Вы не можете начинать темы
Вы не можете отвечать на сообщения
Вы не можете редактировать свои сообщения
Вы не можете удалять свои сообщения
Вы не можете голосовать в опросах
Вы не можете прикреплять файлы к сообщениям
Вы не можете скачивать файлы

▼ Вниз