Уважаемый Гость!
Вы можете поддержать проект и зарегистрироваться у наших партнеров - онлайн-стратегия MyLands. При регистрации в игре Вы получите код, который сможете активировать после регистрации на pirat.ca и получить 1000 дублонов.

Ваш код:
f0fd07852eba565c39fb4a6d5ce1a0542d556597
 
     

(Chanson) Сергей Наговицын - Каждому свое - 2004 [FLAC, image+.cue, lossless]

Ответить на тему
 
Автор
Сообщение

Пост 13-Ноя-2012 23:01

[Q] 

Борей_64

Корсар

-Сергей Наговицын - Каждому свое-- Год издания: 2004
Страна: Россия
Жанр: Chanson
Продолжительность: 01.14.17-Формат: FLAC
Битрейт аудио: lossless
Тип рипа: image+.cue-
1. Дори-Дори
2. Этап
3. Городские встречи
4. Потерянный край
5. Разбитая судьба
6. До свидания, кореша
7. Девочка-проказница
8. На привокзальной площади
9. Кабакам - кабачный дым
10. Белый снег
11. Там на елках...
12. Любимой посвящается
13. На суде
14. Каждому свое
Exact Audio Copy V1.0 beta 3 from 29. August 2011
Отчёт EAC об извлечении, выполненном 13. ноября 2012, 9:22
Сергей Наговицин / Каждому своё
Дисковод: Optiarc DVD RW AD-7173A Adapter: 2 ID: 0
Режим чтения : Достоверность
Использование точного потока : Да
Отключение кэша аудио : Да
Использование указателей C2 : Нет
Коррекция смещения при чтении : 48
Способность читать области Lead-in и Lead-out : Нет
Заполнение пропущенных сэмплов тишиной : Да
Удаление блоков с тишиной в начале и конце : Нет
При вычислениях CRC использовались нулевые сэмплы : Да
Интерфейс : Установленный внешний ASPI-интерфейс
Выходной формат : Пользовательский кодировщик
Выбранный битрейт : 128 kBit/s
Качество : Высокий
Добавление ID3-тега : Нет
Утилита сжатия : C:\Program Files\FLAC\flac.exe
Дополнительные параметры : -V -8 -T "Date=%year%" -T "Genre=%genre%" %source%
TOC извлечённого CD
Трек | Старт | Длительность | Начальный сектор | Конечный сектор
---------------------------------------------------------------------
1 | 0:00.00 | 3:33.47 | 0 | 16021
2 | 3:33.47 | 4:52.47 | 16022 | 37968
3 | 8:26.19 | 4:03.07 | 37969 | 56200
4 | 12:29.26 | 6:53.15 | 56201 | 87190
5 | 19:22.41 | 6:04.71 | 87191 | 114561
6 | 25:27.37 | 7:03.69 | 114562 | 146355
7 | 32:31.31 | 4:29.18 | 146356 | 166548
8 | 37:00.49 | 3:17.33 | 166549 | 181356
9 | 40:18.07 | 4:34.60 | 181357 | 201966
10 | 44:52.67 | 5:32.27 | 201967 | 226893
11 | 50:25.19 | 6:06.20 | 226894 | 254363
12 | 56:31.39 | 5:28.67 | 254364 | 279030
13 | 62:00.31 | 6:25.51 | 279031 | 307956
14 | 68:26.07 | 5:51.00 | 307957 | 334281
Характеристики диапазона извлечения и сообщения об ошибках
Выбранный диапазон
Имя файла C:\Users\Борей\Desktop\Шансон\Сергей Наговицин - Каждому своё.wav
Пиковый уровень 100.0 %
Скорость извлечения 5.7 X
Качество диапазона 99.9 %
CRC теста 0009F4B0
CRC копии 0009F4B0
Копирование... OK
Ошибок не произошло
Конец отчёта
==== Контрольная сумма отчёта A6EA20804B24CB69512E829E7F29211F215A48E306116C8C9285DAF0619C7793 ====
REM GENRE Chanson
REM DATE 2004
REM DISCID B111690E
REM COMMENT "ExactAudioCopy v1.0b3"
PERFORMER "Сергей Наговицин"
TITLE "Каждому своё"
FILE "Сергей Наговицин - Каждому своё.flac" WAVE
TRACK 01 AUDIO
TITLE "Дори-дори"
PERFORMER "Сергей Наговицин"
ISRC 000000000000
INDEX 01 00:00:00
TRACK 02 AUDIO
TITLE "Этап"
PERFORMER "Сергей Наговицин"
ISRC 000000000000
INDEX 00 03:31:47
INDEX 01 03:33:47
TRACK 03 AUDIO
TITLE "Городские встречи"
PERFORMER "Сергей Наговицин"
ISRC 000000000000
INDEX 00 08:24:19
INDEX 01 08:26:19
TRACK 04 AUDIO
TITLE "Потерянный край"
PERFORMER "Сергей Наговицин"
ISRC 000000000000
INDEX 00 12:27:26
INDEX 01 12:29:26
TRACK 05 AUDIO
TITLE "Разбитая судьба"
PERFORMER "Сергей Наговицин"
ISRC 000000000000
INDEX 00 19:20:41
INDEX 01 19:22:41
TRACK 06 AUDIO
TITLE "До свидания кореша"
PERFORMER "Сергей Наговицин"
ISRC 000000000000
INDEX 00 25:25:37
INDEX 01 25:27:37
TRACK 07 AUDIO
TITLE "Девочка проказница"
PERFORMER "Сергей Наговицин"
ISRC 000000000000
INDEX 00 32:29:31
INDEX 01 32:31:31
TRACK 08 AUDIO
TITLE "На привокзальной площади"
PERFORMER "Сергей Наговицин"
ISRC 000000000000
INDEX 00 36:58:49
INDEX 01 37:00:49
TRACK 09 AUDIO
TITLE "Кабакам-кабацкий дым"
PERFORMER "Сергей Наговицин"
ISRC 000000000000
INDEX 00 40:16:07
INDEX 01 40:18:07
TRACK 10 AUDIO
TITLE "Белый снег"
PERFORMER "Сергей Наговицин"
ISRC 000000000000
INDEX 00 44:50:67
INDEX 01 44:52:67
TRACK 11 AUDIO
TITLE "Там,на ёлках"
PERFORMER "Сергей Наговицин"
ISRC 000000000000
INDEX 00 50:23:19
INDEX 01 50:25:19
TRACK 12 AUDIO
TITLE "Любимой посвящается"
PERFORMER "Сергей Наговицин"
ISRC 000000000000
INDEX 00 56:29:39
INDEX 01 56:31:39
TRACK 13 AUDIO
TITLE "На суде"
PERFORMER "Сергей Наговицин"
ISRC 000000000000
INDEX 00 61:58:31
INDEX 01 62:00:31
TRACK 14 AUDIO
TITLE "Каждому своё"
PERFORMER "Сергей Наговицин"
ISRC 000000000000
INDEX 00 68:24:07
INDEX 01 68:26:07
AUDIOCHECKER v2.0 beta (build 457) - by Dester - opdester@freemail.hu
~~~~~~~~~~~~~~~~~~~~~~~~~~~~~~~~~~
-=== НЕ РЕДАКТИРУЙТЕ ЭТОТ ФАЙЛ! ===-
Путь: ...\Шансон
1 -=- Сергей Наговицин - Каждому своё.flac -=- CDDA (100%)
70816884
Сергей Наговицын - автор-исполнитель в жанре русский шансон. Широкую известность приобрел в 1998 году, после выхода альбома «Приговор». Всего Сергеем выпущено пять альбомов: «Городские встречи», «Дори-Дори», «Этап», «Приговор», «Разбитая судьба». .
Родился Сергей Наговицын в 22 июля 1968 году в городе Перми.В средней школе учился на тройки. Но был очень спортивным (игровые виды, КМС по боксу). На гитаре начал играть в 1985 года под влиянием Александра Розенбаума.
После школы Сергей поступил в Пермский медицинский институт, но его забрали в армию. По распределению Сергей Наговицын попадает в Батуми, в «горячую точку».
Демобилизовавшись из Вооруженных Сил Сергей Наговицын устраивается на работу в пермский «ГорГаз». В недрах этой организации сущестовала самодеятельная рок-группа, не чуравшаяся блатного фольклора, которой было суждено сделать первые аранжировки песен Сергея Наговицына (альбом «Полная Луна»).
«Луна» сыграла свою роль. В 1992 году московский продюссерский центр «Русское Шоу» предложил Наговицыну подписать контракт о звукозаписи. Наговицын подписал, но жить в Москву не переехал.
В начале девяностых формируется неповторимый наговицынский стиль - сплав городского романса, блатной лирики и дискотечного ритма плюс, конечно, своеобразный тембр голоса Сергея.
К началу 1994 уже было написано 16 песен. Половина из них вошла в первый альбом «Городские встречи» (1998), записанный на профессиональной студии.
Затем был записан альбом «Дори-Дори» из песен, написанных в 1995-96 годах. Песня «Дори-Дори» с этого альбома попала в поле зрения Санкт-Петербургской радиостанции «Радио Русский Шансон». Именно с «Дори-Дори» началась всероссийская известность музыканта.
Своими любимыми исполнителями Сергей Наговицын называл: Аркадия Северного, Владимира Высоцкого, Александра Розенбаума, Александра Новикова.
Сергей Наговицын не сидел в тюрьме и не привлекался к уголовной ответственности.
В ночь с 20 на 21 декабря 1999 года, направляясь на гастроли в Курган, Сергей Наговицын скоропостижно скончался от кровоизлияния в мозг. 22 декабря Сергей был похоронен в Перми
Download / Скачать

Хотите скачать бесплатно? Зарегистрируйтесь на сайте (ссылка на регистрацию). Pirat.ca - самый быстрый торрент трекер в рунете!

Как скачивать  ·   Что такое торрент  ·   Рейтинг и ограничения

Desant

Шкипер

Пост 22-Ноя-2012 00:31 (спустя 8 дней)

[Q] 

Почитал биографию... Жаль ... как говорится " и не пожил".. Много талантливых людей уходят рано(
[Профиль]  [ЛС] 

vovav-1924

Флибустьер

Пост 11-Дек-2012 01:09 (спустя 19 дней)

[Q] 

[Профиль]  [ЛС] 

kondi

Пост 13-Окт-2014 17:59 (спустя 1 год 10 месяцев)

[Q] 

Одобрямс!
[Профиль]  [ЛС] 

maki

Морской Волк

Пост 15-Окт-2014 13:03 (спустя 1 день 19 часов)

[Q] 

нормалек.послушаем )) !COOL!
[Профиль]  [ЛС] 

tem-ar

Лоцман

Пост 09-Апр-2016 22:47 (спустя 1 год 5 месяцев)

[Q] 

на раздачу встаньте.
[Профиль]  [ЛС] 
Показать сообщения:    
Ответить на тему

Текущее время: Сегодня 08:01

Часовой пояс: GMT + 4



Вы не можете начинать темы
Вы не можете отвечать на сообщения
Вы не можете редактировать свои сообщения
Вы не можете удалять свои сообщения
Вы не можете голосовать в опросах
Вы не можете прикреплять файлы к сообщениям
Вы не можете скачивать файлы

▼ Вниз