(Modern Classical, Gothic, Ethnic Fusion, Ambient) Dead Can Dance - Официальная дискография (неремастеры) - 12 альбомов (1984-2012), FLAC (image +.cue)/(tracks, web), lossless

Ответить на тему
 
Автор
Сообщение

Пост 04-Фев-2013 00:08

[Q] 

Kote Makaradze

DEAD CAN DANCE- -ДИСКОГРАФИЯ (1984-2012)-Жанр: Modern Classical, Gothic, Ethnic Fusion, Ambient
Производитель: Germany, USA
Аудио кодек: FLAC
Тип рипа: image +.cue
Битрейт аудио: lossless
Сканы: 600 dpi .png-www.deadcandance.com- -
DEAD CAN DANCE- Дата выпуска альбома: 3/1984
CD: Germany/(Austria), 4.A.D./Rough Trade, RTD 120.0051.2, (1992)
Продолжительность: 51:07-Tracklist:
1. The Fatal Impact 3:21
2. The Trial 3:42
3. Frontier 3:13
4. Fortune 3:47
5. Ocean 3:21
6. East Of Eden 3:23
7. Threshold 3:34
8. A Passage In Time 4:03
9. Wild In The Woods 3:46
10. Musica Eternal 3:51
Garden Of The Arcane Delights
11. Carnival Of Light 3:32
12. In Power We Entrust The Love Advocated 4:11
13. The Arcane 3:49
14. Flowers Of The Sea 3:29
-Credits:
Written & produced by Dead Can Dance
"A special thank-you to Ivo, Robin and Vaughan for all the interest they have shown"
-
Exact Audio Copy V0.99 prebeta 4 from 23. January 2008
EAC extraction logfile from 29. April 2010, 14:07
Dead Can Dance / Dead Can Dance (RTD 120.0051.2)
Used drive : PIONEER DVD-RW DVR-105 Adapter: 0 ID: 1
Read mode : Secure
Utilize accurate stream : Yes
Defeat audio cache : Yes
Make use of C2 pointers : No
Read offset correction : 48
Overread into Lead-In and Lead-Out : No
Fill up missing offset samples with silence : Yes
Delete leading and trailing silent blocks : No
Null samples used in CRC calculations : Yes
Used interface : Installed external ASPI interface
Used output format : User Defined Encoder
Selected bitrate : 768 kBit/s
Quality : High
Add ID3 tag : No
Command line compressor : C:\Program Files\Exact Audio Copy\Flac\flac.exe
Additional command line options : -8 -V -T "ARTIST=%a" -T "TITLE=%t" -T "ALBUM=%g" -T "DATE=%y" -T "TRACKNUMBER=%n" -T "GENRE=%m" -T "COMMENT=%e" %s -o %d
TOC of the extracted CD
Track | Start | Length | Start sector | End sector
---------------------------------------------------------
1 | 0:00.00 | 3:21.25 | 0 | 15099
2 | 3:21.25 | 3:42.67 | 15100 | 31816
3 | 7:04.17 | 3:13.08 | 31817 | 46299
4 | 10:17.25 | 3:47.35 | 46300 | 63359
5 | 14:04.60 | 3:21.40 | 63360 | 78474
6 | 17:26.25 | 3:23.12 | 78475 | 93711
7 | 20:49.37 | 3:34.25 | 93712 | 109786
8 | 24:23.62 | 4:03.63 | 109787 | 128074
9 | 28:27.50 | 3:46.45 | 128075 | 145069
10 | 32:14.20 | 3:51.40 | 145070 | 162434
11 | 36:05.60 | 3:32.00 | 162435 | 178334
12 | 39:37.60 | 4:11.00 | 178335 | 197159
13 | 43:48.60 | 3:49.02 | 197160 | 214336
14 | 47:37.62 | 3:29.15 | 214337 | 230026
Range status and errors
Selected range
Filename C:\Dead Can Dance . 1984 . Dead Can Dance (RTD 120.0051.2)\Dead Can Dance . 1984 . Dead Can Dance (RTD 120.0051.2).wav
Peak level 85.7 %
Range quality 100.0 %
Test CRC 7964B155
Copy CRC 7964B155
Copy OK
No errors occurred
AccurateRip summary
Track 1 accurately ripped (confidence 8) [6B986BF9]
Track 2 accurately ripped (confidence 8) [6B0FCEF6]
Track 3 accurately ripped (confidence 8) [D7CAF637]
Track 4 accurately ripped (confidence 8) [C5939DF1]
Track 5 accurately ripped (confidence 8) [8D9E8697]
Track 6 accurately ripped (confidence 7) [4E582AE2]
Track 7 accurately ripped (confidence 8) [6790A94A]
Track 8 accurately ripped (confidence 8) [893AF5FB]
Track 9 accurately ripped (confidence 8) [3354987E]
Track 10 accurately ripped (confidence 8) [1EA6A05C]
Track 11 accurately ripped (confidence 8) [24494DCA]
Track 12 accurately ripped (confidence 8) [EA5E54B0]
Track 13 accurately ripped (confidence 8) [C02D8EA5]
Track 14 accurately ripped (confidence 8) [8B77EEFA]
All tracks accurately ripped
End of status report
REM GENRE "Dark Wave "
REM DATE 1984
REM DISCID C70BFB0E
REM COMMENT "ExactAudioCopy v0.99pb4"
PERFORMER "Dead Can Dance"
TITLE "Dead Can Dance (RTD 120.0051.2)"
FILE "Dead Can Dance . 1984 . Dead Can Dance (RTD 120.0051.2).flac" WAVE
TRACK 01 AUDIO
TITLE "The Fatal Impact"
PERFORMER "Dead Can Dance"
INDEX 01 00:00:00
TRACK 02 AUDIO
TITLE "The Trial"
PERFORMER "Dead Can Dance"
INDEX 01 03:21:25
TRACK 03 AUDIO
TITLE "Frontier"
PERFORMER "Dead Can Dance"
INDEX 00 07:02:25
INDEX 01 07:04:17
TRACK 04 AUDIO
TITLE "Fortune"
PERFORMER "Dead Can Dance"
INDEX 00 10:16:62
INDEX 01 10:17:25
TRACK 05 AUDIO
TITLE "Ocean"
PERFORMER "Dead Can Dance"
INDEX 00 14:04:47
INDEX 01 14:04:60
TRACK 06 AUDIO
TITLE "East Of Eden"
PERFORMER "Dead Can Dance"
INDEX 00 17:24:45
INDEX 01 17:26:25
TRACK 07 AUDIO
TITLE "Threshold"
PERFORMER "Dead Can Dance"
INDEX 00 20:48:35
INDEX 01 20:49:37
TRACK 08 AUDIO
TITLE "A Passage In Time"
PERFORMER "Dead Can Dance"
INDEX 00 24:22:02
INDEX 01 24:23:62
TRACK 09 AUDIO
TITLE "Wild In The Woods"
PERFORMER "Dead Can Dance"
INDEX 01 28:27:50
TRACK 10 AUDIO
TITLE "Musica Eternal"
PERFORMER "Dead Can Dance"
INDEX 00 32:13:40
INDEX 01 32:14:20
TRACK 11 AUDIO
TITLE "Carnival Of Light"
PERFORMER "Dead Can Dance"
INDEX 00 36:05:35
INDEX 01 36:05:60
TRACK 12 AUDIO
TITLE "In Power We Entrust The Love Advocated"
PERFORMER "Dead Can Dance"
INDEX 01 39:37:60
TRACK 13 AUDIO
TITLE "The Arcane"
PERFORMER "Dead Can Dance"
INDEX 00 43:47:45
INDEX 01 43:48:60
TRACK 14 AUDIO
TITLE "Flowers Of The Sea"
PERFORMER "Dead Can Dance"
INDEX 00 47:35:52
INDEX 01 47:37:62
-
SPLEEN AND IDEAL- Дата выпуска альбома: 11/1985
CD: Germany/(Austria), 4.A.D./Rough Trade, RTD 120.0032.2, (1992)
Продолжительность: 38:08-Tracklist:
1. De Profundis (Out Of The Depths Of Sorrow) 4:00
2. Ascension 3:05
3. Circumradiant Dawn 3:17
4. The Cardinal Sin 5:29
5. Mesmerism 3:53
6. Enigma Of The Absolute 4:13
7. Advent 5:18
8. Avatar 4:35
9. Indoctrination (A Design For Living) 4:14
-Credits:
Gus Ferguson: cello
Martin McGarrick: cello
James Pinker: timpani
Tony Ayres: timpani
Richard Avison: trombone
Simon Hogg: trombone
Andrew Hutton: soprano on 'de profundis'
Carolyn Costin: violin
All other instruments and voices performed by Brendan Perry and Lisa Gerrard
Produced by Dead Can Dance and John A. Rivers
-
Exact Audio Copy V0.99 prebeta 4 from 23. January 2008
EAC extraction logfile from 29. April 2010, 15:02
Dead Can Dance / Spleen and Ideal (RTD 120.0032.2)
Used drive : PIONEER DVD-RW DVR-105 Adapter: 0 ID: 1
Read mode : Secure
Utilize accurate stream : Yes
Defeat audio cache : Yes
Make use of C2 pointers : No
Read offset correction : 48
Overread into Lead-In and Lead-Out : No
Fill up missing offset samples with silence : Yes
Delete leading and trailing silent blocks : No
Null samples used in CRC calculations : Yes
Used interface : Installed external ASPI interface
Used output format : User Defined Encoder
Selected bitrate : 768 kBit/s
Quality : High
Add ID3 tag : No
Command line compressor : C:\Program Files\Exact Audio Copy\Flac\flac.exe
Additional command line options : -8 -V -T "ARTIST=%a" -T "TITLE=%t" -T "ALBUM=%g" -T "DATE=%y" -T "TRACKNUMBER=%n" -T "GENRE=%m" -T "COMMENT=%e" %s -o %d
TOC of the extracted CD
Track | Start | Length | Start sector | End sector
---------------------------------------------------------
1 | 0:00.00 | 4:00.22 | 0 | 18021
2 | 4:00.22 | 3:05.68 | 18022 | 31964
3 | 7:06.15 | 3:17.05 | 31965 | 46744
4 | 10:23.20 | 5:29.00 | 46745 | 71419
5 | 15:52.20 | 3:53.65 | 71420 | 88959
6 | 19:46.10 | 4:13.50 | 88960 | 107984
7 | 23:59.60 | 5:18.70 | 107985 | 131904
8 | 29:18.55 | 4:35.37 | 131905 | 152566
9 | 33:54.17 | 4:14.08 | 152567 | 171624
Range status and errors
Selected range
Filename C:\Dead Can Dance . 1985 . Spleen and Ideal (RTD 120.0032.2)\Dead Can Dance . 1985 . Spleen and Ideal (RTD 120.0032.2).wav
Peak level 97.7 %
Range quality 100.0 %
Test CRC A333A880
Copy CRC A333A880
Copy OK
No errors occurred
AccurateRip summary
Track 1 accurately ripped (confidence 9) [C392A39E]
Track 2 accurately ripped (confidence 9) [59C6717F]
Track 3 accurately ripped (confidence 8) [BD4D7A11]
Track 4 accurately ripped (confidence 9) [60BE6FF0]
Track 5 accurately ripped (confidence 9) [04406B3B]
Track 6 accurately ripped (confidence 9) [9D74DAA6]
Track 7 accurately ripped (confidence 9) [EA58D810]
Track 8 accurately ripped (confidence 9) [12A17BA2]
Track 9 accurately ripped (confidence 9) [D3353007]
All tracks accurately ripped
End of status report
REM GENRE Darkwave
REM DATE 1985
REM DISCID 6C08F009
REM COMMENT "ExactAudioCopy v0.99pb4"
PERFORMER "Dead Can Dance"
TITLE "Spleen and Ideal (RTD 120.0032.2)"
FILE "Dead Can Dance . 1985 . Spleen and Ideal (RTD 120.0032.2).flac" WAVE
TRACK 01 AUDIO
TITLE "De Profundis (out of the Depths of Sorrow)"
PERFORMER "Dead Can Dance"
INDEX 01 00:00:00
TRACK 02 AUDIO
TITLE "Ascension"
PERFORMER "Dead Can Dance"
INDEX 00 03:57:72
INDEX 01 04:00:22
TRACK 03 AUDIO
TITLE "Circumradiant Dawn"
PERFORMER "Dead Can Dance"
INDEX 00 07:05:17
INDEX 01 07:06:15
TRACK 04 AUDIO
TITLE "The Cardinal Sin"
PERFORMER "Dead Can Dance"
INDEX 00 10:22:27
INDEX 01 10:23:20
TRACK 05 AUDIO
TITLE "Mesmerism"
PERFORMER "Dead Can Dance"
INDEX 00 15:50:67
INDEX 01 15:52:20
TRACK 06 AUDIO
TITLE "Enigma of the Absolute"
PERFORMER "Dead Can Dance"
INDEX 00 19:43:60
INDEX 01 19:46:10
TRACK 07 AUDIO
TITLE "Advent"
PERFORMER "Dead Can Dance"
INDEX 00 23:59:30
INDEX 01 23:59:60
TRACK 08 AUDIO
TITLE "Avatar"
PERFORMER "Dead Can Dance"
INDEX 00 29:15:45
INDEX 01 29:18:55
TRACK 09 AUDIO
TITLE "Indoctrination (a Design for Living)"
PERFORMER "Dead Can Dance"
INDEX 00 33:53:27
INDEX 01 33:54:17
-
Within The Realm Of A Dying Sun- Дата выпуска альбома: 7/1987
CD: Germany/(Austria), 4.A.D./Rough Trade, RTD 120.0023.2, (1992)
Продолжительность: 38:44-Tracklist:
1. Anywhere Out Of The World 5:07
2. Windfall 3:30
3. In The Wake Of Adversity 4:14
4. Xavier 6:16
5. Dawn Of The Iconoclast 2:06
6. Cantara 5:58
7. Summoning Of The Muse 4:55
8. Persephone (The Gathering Of Flowers) 6:36
-Credits:
Alison Harling: violin
Emlyn Singleton: violin
Piero Gasparini: viola
Tony Gamage: cello
Gus Ferguson: cello
Mark Gerrard: trumpet
Richard Avison: trombone
John Singleton: trombone
Andrew Claxton: bass - trombone - tuba
Ruth Watson: oboe
Peter Ulrich: timpani - military snare
All other instruments and voices performed by Brendan Perry and Lisa Gerrard
Produced by Dead Can Dance and John A. Rivers
-
Exact Audio Copy V0.99 prebeta 4 from 23. January 2008
EAC extraction logfile from 3. May 2010, 20:58
Dead Can Dance / Within The Realm Of A Dying Sun (RTD 120.0023.2)
Used drive : PIONEER DVD-RW DVR-105 Adapter: 0 ID: 1
Read mode : Secure
Utilize accurate stream : Yes
Defeat audio cache : Yes
Make use of C2 pointers : No
Read offset correction : 48
Overread into Lead-In and Lead-Out : No
Fill up missing offset samples with silence : Yes
Delete leading and trailing silent blocks : No
Null samples used in CRC calculations : Yes
Used interface : Installed external ASPI interface
Used output format : User Defined Encoder
Selected bitrate : 768 kBit/s
Quality : High
Add ID3 tag : No
Command line compressor : C:\Program Files\Exact Audio Copy\Flac\flac.exe
Additional command line options : -8 -V -T "ARTIST=%a" -T "TITLE=%t" -T "ALBUM=%g" -T "DATE=%y" -T "TRACKNUMBER=%n" -T "GENRE=%m" -T "COMMENT=%e" %s -o %d
TOC of the extracted CD
Track | Start | Length | Start sector | End sector
---------------------------------------------------------
1 | 0:00.00 | 5:07.30 | 0 | 23054
2 | 5:07.30 | 3:30.37 | 23055 | 38841
3 | 8:37.67 | 4:14.20 | 38842 | 57911
4 | 12:52.12 | 6:16.05 | 57912 | 86116
5 | 19:08.17 | 2:06.20 | 86117 | 95586
6 | 21:14.37 | 5:58.13 | 95587 | 122449
7 | 27:12.50 | 4:55.62 | 122450 | 144636
8 | 32:08.37 | 6:36.30 | 144637 | 174366
Range status and errors
Selected range
Filename C:\Dead Can Dance . 1987 . Within The Realm Of A Dying Sun (RTD 120.0023.2)\Dead Can Dance . 1987 . Within The Realm Of A Dying Sun (RTD 120.0023.2).wav
Peak level 100.0 %
Range quality 100.0 %
Test CRC 1C879AB5
Copy CRC 1C879AB5
Copy OK
No errors occurred
AccurateRip summary
Track 1 accurately ripped (confidence 12) [91D7034C]
Track 2 accurately ripped (confidence 12) [E34E3AFE]
Track 3 accurately ripped (confidence 12) [59C6793E]
Track 4 accurately ripped (confidence 12) [A0064BF8]
Track 5 accurately ripped (confidence 12) [E293EFD1]
Track 6 accurately ripped (confidence 12) [AC8B0ECC]
Track 7 accurately ripped (confidence 12) [1276DEAE]
Track 8 accurately ripped (confidence 12) [59C0A86A]
All tracks accurately ripped
End of status report
REM GENRE Darkwave
REM DATE 1987
REM DISCID 61091408
REM COMMENT "ExactAudioCopy v0.99pb4"
PERFORMER "Dead Can Dance"
TITLE "Within The Realm Of A Dying Sun (RTD 120.0023.2)"
FILE "Dead Can Dance . 1987 . Within The Realm Of A Dying Sun (RTD 120.0023.2).flac" WAVE
TRACK 01 AUDIO
TITLE "Anywhere Out Of The World"
PERFORMER "Dead Can Dance"
INDEX 01 00:00:00
TRACK 02 AUDIO
TITLE "Windfall"
PERFORMER "Dead Can Dance"
INDEX 00 05:07:07
INDEX 01 05:07:30
TRACK 03 AUDIO
TITLE "In The Wake Of Adversity"
PERFORMER "Dead Can Dance"
INDEX 01 08:37:67
TRACK 04 AUDIO
TITLE "Xavier"
PERFORMER "Dead Can Dance"
INDEX 00 12:51:60
INDEX 01 12:52:12
TRACK 05 AUDIO
TITLE "Dawn Of The Iconoclast"
PERFORMER "Dead Can Dance"
INDEX 00 19:07:07
INDEX 01 19:08:17
TRACK 06 AUDIO
TITLE "Cantara"
PERFORMER "Dead Can Dance"
INDEX 01 21:14:37
TRACK 07 AUDIO
TITLE "Summoning Of The Muse"
PERFORMER "Dead Can Dance"
INDEX 00 27:11:32
INDEX 01 27:12:50
TRACK 08 AUDIO
TITLE "Persophone (The Gathering Of Flowers)"
PERFORMER "Dead Can Dance"
INDEX 01 32:08:37
-
THE SERPENT'S EGG- Дата выпуска альбома: 10/1988
CD: Germany/(Austria), 4.A.D./Rough Trade, RTD CD 92, (1992)
Продолжительность: 36:16-Tracklist:
1. The Host Of Seraphim 6:19
2. Orbis De Ignis 1:35
3. Severance 3:23
4. The Writing On My Father's Hand 3:50
5. In The Kingdom Of The Blind The One-Eyed Are Kings 4:11
6. Chant Of The Paladin 3:48
7. Song Of Sophia 1:24
8. Echolalia 1:17
9. Mother Tongue 5:17
10. Ullyses 5:09
-Credits:
voices: Lisa Gerrard, Brendan Perry, David Navarro Sust
hurdy-gurdy: Brendan Perry
violin: Alison Harling , Rebecca Jackson
viola: Sarah Buckley, Andrew Beesley
violoncello: Tony Gamage
produced by Dead Can Dance
-
Exact Audio Copy V0.99 prebeta 4 from 23. January 2008
EAC extraction logfile from 28. April 2010, 20:08
Dead Can Dance / The Serpent's Egg (RTD CD 92)
Used drive : PIONEER DVD-RW DVR-105 Adapter: 0 ID: 1
Read mode : Secure
Utilize accurate stream : Yes
Defeat audio cache : Yes
Make use of C2 pointers : No
Read offset correction : 48
Overread into Lead-In and Lead-Out : No
Fill up missing offset samples with silence : Yes
Delete leading and trailing silent blocks : No
Null samples used in CRC calculations : Yes
Used interface : Installed external ASPI interface
Used output format : User Defined Encoder
Selected bitrate : 768 kBit/s
Quality : High
Add ID3 tag : No
Command line compressor : C:\Program Files\Exact Audio Copy\Flac\flac.exe
Additional command line options : -8 -V -T "ARTIST=%a" -T "TITLE=%t" -T "ALBUM=%g" -T "DATE=%y" -T "TRACKNUMBER=%n" -T "GENRE=%m" -T "COMMENT=%e" %s -o %d
TOC of the extracted CD
Track | Start | Length | Start sector | End sector
---------------------------------------------------------
1 | 0:00.00 | 6:19.00 | 0 | 28424
2 | 6:19.00 | 1:35.50 | 28425 | 35599
3 | 7:54.50 | 3:23.00 | 35600 | 50824
4 | 11:17.50 | 3:50.25 | 50825 | 68099
5 | 15:08.00 | 4:11.62 | 68100 | 86986
6 | 19:19.62 | 3:48.38 | 86987 | 104124
7 | 23:08.25 | 1:24.25 | 104125 | 110449
8 | 24:32.50 | 1:17.00 | 110450 | 116224
9 | 25:49.50 | 5:17.00 | 116225 | 139999
10 | 31:06.50 | 5:09.25 | 140000 | 163199
Range status and errors
Selected range
Filename C:\Dead Can Dance . 1988 . The Serpent's Egg (RTD CD 92)\Dead Can Dance . 1988 . The Serpent's Egg (RTD CD 92).wav
Peak level 92.4 %
Range quality 100.0 %
Test CRC 1665E3B6
Copy CRC 1665E3B6
Copy OK
No errors occurred
AccurateRip summary
Track 1 accurately ripped (confidence 13) [A590E680]
Track 2 accurately ripped (confidence 14) [43A1B972]
Track 3 accurately ripped (confidence 14) [F838F687]
Track 4 accurately ripped (confidence 14) [87D2555E]
Track 5 accurately ripped (confidence 14) [EB5A8CC2]
Track 6 accurately ripped (confidence 14) [37214260]
Track 7 accurately ripped (confidence 14) [AB33A950]
Track 8 accurately ripped (confidence 14) [50323527]
Track 9 accurately ripped (confidence 13) [5A217814]
Track 10 accurately ripped (confidence 12) [28EBFA86]
All tracks accurately ripped
End of status report
REM GENRE Gothic
REM DATE 1988
REM DISCID 8808800A
REM COMMENT "ExactAudioCopy v0.99pb4"
PERFORMER "Dead Can Dance"
TITLE "The Serpent's Egg (RTD CD 92)"
FILE "Dead Can Dance . 1988 . The Serpent's Egg (RTD CD 92).flac" WAVE
TRACK 01 AUDIO
TITLE "The Host Of Seraphim"
PERFORMER "Dead Can Dance"
INDEX 01 00:00:00
TRACK 02 AUDIO
TITLE "Orbis De Ignis"
PERFORMER "Dead Can Dance"
INDEX 01 06:19:00
TRACK 03 AUDIO
TITLE "Severance"
PERFORMER "Dead Can Dance"
INDEX 01 07:54:50
TRACK 04 AUDIO
TITLE "The Writing On My Father's Hand"
PERFORMER "Dead Can Dance"
INDEX 01 11:17:50
TRACK 05 AUDIO
TITLE "In The Kingdom Of The Blind The One-Eyed Are Kings"
PERFORMER "Dead Can Dance"
INDEX 01 15:08:00
TRACK 06 AUDIO
TITLE "Chant Of The Paladin"
PERFORMER "Dead Can Dance"
INDEX 01 19:19:62
TRACK 07 AUDIO
TITLE "Song Of Sophia"
PERFORMER "Dead Can Dance"
INDEX 01 23:08:25
TRACK 08 AUDIO
TITLE "Echolalia"
PERFORMER "Dead Can Dance"
INDEX 01 24:32:50
TRACK 09 AUDIO
TITLE "Mother Tongue"
PERFORMER "Dead Can Dance"
INDEX 01 25:49:50
TRACK 10 AUDIO
TITLE "Ullyses"
PERFORMER "Dead Can Dance"
INDEX 01 31:06:50
-
AION- Дата выпуска альбома: 10/1990
CD: Germany/(Austria), 4.A.D./Rough Trade, RTD CD 158, (1990)
Продолжительность: 36:11-Tracklist:

1. The Arrival And The Reunion 1:39
2. Saltarello 2:34
3. Mephisto 0:54
4. The Song Of The Sybil 3:45
5. Fortune Presents Gifts Not According To The Book 6:03
6. As The Bell Rings The Maypole Spins 5:16
7. The End Of Words 2:05
8. Black Sun 4:56
9. Wilderness 1:24
10. The Promised Womb 3:23
11. The Garden Of Zephirus 1:18
12. Radharc 2:48
-Credits:
John Bonnar: Keyboards on track 5 and Co-arrangements on tracks 2, 5
David Navarro Sust: Vocals on tracks 1,7
Robert Perry: Bagpipes on track 6
On track 10:
Andrew Robinson: Bass Viol
Lucy Robinson: Tenor Viol
Anne Robinson: Bass Viol
Honor Carmody: Tenor Viol
All other instruments and voices performed by Brendan Perry and Lisa Gerrard
Produced by Dead Can Dance

-
Exact Audio Copy V0.99 prebeta 4 from 23. January 2008
EAC extraction logfile from 3. May 2010, 21:27
Dead Can Dance / Aion (RTDCD 158)
Used drive : PIONEER DVD-RW DVR-105 Adapter: 0 ID: 1
Read mode : Secure
Utilize accurate stream : Yes
Defeat audio cache : Yes
Make use of C2 pointers : No
Read offset correction : 48
Overread into Lead-In and Lead-Out : No
Fill up missing offset samples with silence : Yes
Delete leading and trailing silent blocks : No
Null samples used in CRC calculations : Yes
Used interface : Installed external ASPI interface
Used output format : User Defined Encoder
Selected bitrate : 768 kBit/s
Quality : High
Add ID3 tag : No
Command line compressor : C:\Program Files\Exact Audio Copy\Flac\flac.exe
Additional command line options : -8 -V -T "ARTIST=%a" -T "TITLE=%t" -T "ALBUM=%g" -T "DATE=%y" -T "TRACKNUMBER=%n" -T "GENRE=%m" -T "COMMENT=%e" %s -o %d
TOC of the extracted CD
Track | Start | Length | Start sector | End sector
---------------------------------------------------------
1 | 0:00.32 | 1:39.10 | 32 | 7466
2 | 1:39.42 | 2:34.15 | 7467 | 19031
3 | 4:13.57 | 0:54.05 | 19032 | 23086
4 | 5:07.62 | 3:45.50 | 23087 | 40011
5 | 8:53.37 | 6:03.63 | 40012 | 67299
6 | 14:57.25 | 5:16.62 | 67300 | 91061
7 | 20:14.12 | 2:05.65 | 91062 | 100501
8 | 22:20.02 | 4:56.68 | 100502 | 122769
9 | 27:16.70 | 1:24.05 | 122770 | 129074
10 | 28:41.00 | 3:23.57 | 129075 | 144356
11 | 32:04.57 | 1:18.65 | 144357 | 150271
12 | 33:23.47 | 2:48.05 | 150272 | 162876
Range status and errors
Selected range
Filename C:\Dead Can Dance . 1990 . Aion (RTDCD 158)\Dead Can Dance . 1990 . Aion (RTDCD 158).wav
Peak level 83.3 %
Range quality 99.9 %
Test CRC 5F21A5DD
Copy CRC 5F21A5DD
Copy OK
No errors occurred
AccurateRip summary
Track 1 accurately ripped (confidence 32) [526B3059]
Track 2 accurately ripped (confidence 32) [6285FD34]
Track 3 accurately ripped (confidence 32) [3460F75C]
Track 4 accurately ripped (confidence 32) [B0596FBF]
Track 5 accurately ripped (confidence 32) [3CB9AC42]
Track 6 accurately ripped (confidence 32) [F17727E5]
Track 7 accurately ripped (confidence 32) [DE220922]
Track 8 accurately ripped (confidence 32) [BD41C695]
Track 9 accurately ripped (confidence 32) [FC20D00E]
Track 10 accurately ripped (confidence 32) [9F4CCB72]
Track 11 accurately ripped (confidence 31) [F9B67DBD]
Track 12 accurately ripped (confidence 32) [A26792A0]
All tracks accurately ripped
End of status report
REM GENRE "Ambient, Dark Wave"
REM DATE 1990
REM DISCID 8F087B0C
REM COMMENT "ExactAudioCopy v0.99pb4"
PERFORMER "Dead Can Dance"
TITLE "Aion (RTDCD 158)"
FILE "Dead Can Dance . 1990 . Aion (RTDCD 158).flac" WAVE
TRACK 01 AUDIO
TITLE "The Arrival and the Reunion"
PERFORMER "Dead Can Dance"
INDEX 00 00:00:00
INDEX 01 00:00:32
TRACK 02 AUDIO
TITLE "Saltarello"
PERFORMER "Dead Can Dance"
INDEX 01 01:39:42
TRACK 03 AUDIO
TITLE "Mephisto"
PERFORMER "Dead Can Dance"
INDEX 01 04:13:57
TRACK 04 AUDIO
TITLE "The Song of the Sibyl"
PERFORMER "Dead Can Dance"
INDEX 01 05:07:62
TRACK 05 AUDIO
TITLE "Fortune Presents Gifts Not According to the Book"
PERFORMER "Dead Can Dance"
INDEX 00 08:53:20
INDEX 01 08:53:37
TRACK 06 AUDIO
TITLE "As the Bell Rings the Maypole Spins"
PERFORMER "Dead Can Dance"
INDEX 01 14:57:25
TRACK 07 AUDIO
TITLE "The End of Words"
PERFORMER "Dead Can Dance"
INDEX 01 20:14:12
TRACK 08 AUDIO
TITLE "Black Sun"
PERFORMER "Dead Can Dance"
INDEX 01 22:20:02
TRACK 09 AUDIO
TITLE "Wilderness"
PERFORMER "Dead Can Dance"
INDEX 01 27:16:70
TRACK 10 AUDIO
TITLE "The Promised Womb"
PERFORMER "Dead Can Dance"
INDEX 01 28:41:00
TRACK 11 AUDIO
TITLE "The Garden of Zephirus"
PERFORMER "Dead Can Dance"
INDEX 01 32:04:57
TRACK 12 AUDIO
TITLE "Radharc"
PERFORMER "Dead Can Dance"
INDEX 01 33:23:47
-
a passage in time- Дата выпуска альбома: 20 October 1991
CD: USA, 4.A.D., CAD 1010, (1998)
Продолжительность: 64:15-Tracklist:
1. Saltarello 2:36
2. Song Of Sophia 1:23
3. Ullyses 4:53
4. Cantara 5:52
5. The Garden Of Zephirus 1:19
6. Enigma Of The Absolute 4:12
7. Wilderness 1:23
8. The Host Of Seraphim 6:17
9. Anywhere Out Of The World 5:05
10. The Writing On My Father's Hand 3:50
11. Severance 3:21
12. The Song Of The Sybil 3:45
13. Fortune Presents Gifts Not According To The Book 6:03
14. In The Kingdom Of The Blind The One-Eyed Are Kings 4:09
15. Bird 5:00
16. Spirit 4:59

-
Exact Audio Copy V1.0 beta 3 from 29. August 2011
EAC extraction logfile from 29. November 2012, 2:19
Dead Can Dance / A Passage In Time (CAD 1010)
Used drive : HL-DT-STDVDRAM GE20NU11 Adapter: 0 ID: 1
Read mode : Secure
Utilize accurate stream : Yes
Defeat audio cache : Yes
Make use of C2 pointers : No
Read offset correction : 667
Overread into Lead-In and Lead-Out : No
Fill up missing offset samples with silence : Yes
Delete leading and trailing silent blocks : No
Null samples used in CRC calculations : Yes
Used interface : Native Win32 interface for Win NT & 2000
Used output format : User Defined Encoder
Selected bitrate : 896 kBit/s
Quality : High
Add ID3 tag : No
Command line compressor : C:\Program Files\EAC 3\Exact Audio Copy\Flac\flac.exe
Additional command line options : -V -8 %source%
TOC of the extracted CD
Track | Start | Length | Start sector | End sector
---------------------------------------------------------
1 | 0:00.00 | 2:36.52 | 0 | 11751
2 | 2:36.52 | 1:23.55 | 11752 | 18031
3 | 4:00.32 | 4:53.23 | 18032 | 40029
4 | 8:53.55 | 5:52.72 | 40030 | 66501
5 | 14:46.52 | 1:19.38 | 66502 | 72464
6 | 16:06.15 | 4:12.45 | 72465 | 91409
7 | 20:18.60 | 1:23.72 | 91410 | 97706
8 | 21:42.57 | 6:17.05 | 97707 | 125986
9 | 27:59.62 | 5:05.00 | 125987 | 148861
10 | 33:04.62 | 3:50.00 | 148862 | 166111
11 | 36:54.62 | 3:21.35 | 166112 | 181221
12 | 40:16.22 | 3:45.40 | 181222 | 198136
13 | 44:01.62 | 6:03.53 | 198137 | 225414
14 | 50:05.40 | 4:09.52 | 225415 | 244141
15 | 54:15.17 | 5:00.05 | 244142 | 266646
16 | 59:15.22 | 4:59.53 | 266647 | 289124
Range status and errors
Selected range
Filename C:\OdW\Dead Can Dance . 1991 . A Passage In Time (CAD 1010)\Dead Can Dance - A Passage In Time (CAD 1010).wav
Peak level 99.3 %
Extraction speed 1.1 X
Range quality 100.0 %
Test CRC 82D198AB
Copy CRC 82D198AB
Copy OK
No errors occurred
AccurateRip summary
Track 1 accurately ripped (confidence 4) [3F915990] (AR v2)
Track 2 accurately ripped (confidence 4) [82F7A21A] (AR v2)
Track 3 accurately ripped (confidence 4) [12D024E2] (AR v2)
Track 4 accurately ripped (confidence 4) [7974D1A6] (AR v2)
Track 5 accurately ripped (confidence 4) [822335D1] (AR v2)
Track 6 accurately ripped (confidence 4) [64F95E9B] (AR v2)
Track 7 accurately ripped (confidence 4) [12D5EC72] (AR v2)
Track 8 accurately ripped (confidence 4) [59FFFD49] (AR v2)
Track 9 accurately ripped (confidence 4) [DAC74D86] (AR v2)
Track 10 accurately ripped (confidence 4) [B42BA805] (AR v2)
Track 11 accurately ripped (confidence 4) [BA7EFE0B] (AR v2)
Track 12 accurately ripped (confidence 4) [DBA2BDC7] (AR v2)
Track 13 accurately ripped (confidence 4) [AA160850] (AR v2)
Track 14 accurately ripped (confidence 4) [C22EA4AA] (AR v2)
Track 15 accurately ripped (confidence 4) [799A4FC0] (AR v2)
Track 16 accurately ripped (confidence 4) [BD1EE12C] (AR v2)
All tracks accurately ripped
End of status report
==== Log checksum C47B262792ED46F065F56684638B535B1A99A3209E691A2952F476DF02D3CC2A ====
REM GENRE Darkwave
REM DATE 1991
REM DISCID E10F0F10
REM COMMENT "ExactAudioCopy v1.0b3"
PERFORMER "Dead Can Dance"
TITLE "A Passage In Time (CAD 1010)"
FILE "Dead Can Dance - A Passage In Time (CAD 1010).flac" WAVE
TRACK 01 AUDIO
TITLE "Saltarello"
PERFORMER "Dead Can Dance"
INDEX 01 00:00:00
TRACK 02 AUDIO
TITLE "Song Of Sophia"
PERFORMER "Dead Can Dance"
INDEX 01 02:36:52
TRACK 03 AUDIO
TITLE "Ullyses"
PERFORMER "Dead Can Dance"
INDEX 01 04:00:32
TRACK 04 AUDIO
TITLE "Cantara"
PERFORMER "Dead Can Dance"
INDEX 01 08:53:55
TRACK 05 AUDIO
TITLE "The Garden Of Zephirus"
PERFORMER "Dead Can Dance"
INDEX 01 14:46:52
TRACK 06 AUDIO
TITLE "Enigma Of The Absolute"
PERFORMER "Dead Can Dance"
INDEX 01 16:06:15
TRACK 07 AUDIO
TITLE "Wilderness"
PERFORMER "Dead Can Dance"
INDEX 01 20:18:60
TRACK 08 AUDIO
TITLE "The Host Of Seraphim"
PERFORMER "Dead Can Dance"
INDEX 01 21:42:57
TRACK 09 AUDIO
TITLE "Anywhere Out Of The World"
PERFORMER "Dead Can Dance"
INDEX 01 27:59:62
TRACK 10 AUDIO
TITLE "The Writing On My Fathers Hand"
PERFORMER "Dead Can Dance"
INDEX 01 33:04:62
TRACK 11 AUDIO
TITLE "Severance"
PERFORMER "Dead Can Dance"
INDEX 01 36:54:62
TRACK 12 AUDIO
TITLE "The Song Of The Sybil"
PERFORMER "Dead Can Dance"
INDEX 01 40:16:22
TRACK 13 AUDIO
TITLE "Fortune Presents Gifts Not According To The Book"
PERFORMER "Dead Can Dance"
INDEX 01 44:01:62
TRACK 14 AUDIO
TITLE "In The Kingdom Of The Blind The One-Eyed Are Kings"
PERFORMER "Dead Can Dance"
INDEX 01 50:05:40
TRACK 15 AUDIO
TITLE "Bird"
PERFORMER "Dead Can Dance"
INDEX 01 54:15:17
TRACK 16 AUDIO
TITLE "Spirit"
PERFORMER "Dead Can Dance"
INDEX 01 59:15:22
-
INTO THE LABYRINTH- Дата выпуска альбома: 9/1993
CD: Germany/(Austria), 4.A.D./Rough Trade, RTD 120.1993.2, (1993)
Продолжительность: 55:24-Tracklist:
1. Yulunga (Spirit Dance) 6:56
2. The Ubiquitous Mr Lovegrove 6:16
3. The Wind That Shakes The Barley 2:50
4. The Carnival Is Over 5:28
5. Ariadne 1:54
6. Saldek 1:07
7. Towards The Within 7:06
8. Tell Me About The Forest (You Once Called Home) 5:42
9. The Spider's Stratagem 6:42
10. Emmeleia 2:04
11. How Fortunate The Man With None 9:15
-Credits:
Performed by Lisa Gerrard and Brendan Perry
Produced by Brendan Perry at Quivvy Church
-
Exact Audio Copy V0.99 prebeta 4 from 23. January 2008
EAC extraction logfile from 3. May 2010, 23:02
Dead Can Dance / Into the Labyrinth (RTD 120.1993.2)
Used drive : PIONEER DVD-RW DVR-105 Adapter: 0 ID: 1
Read mode : Secure
Utilize accurate stream : Yes
Defeat audio cache : Yes
Make use of C2 pointers : No
Read offset correction : 48
Overread into Lead-In and Lead-Out : No
Fill up missing offset samples with silence : Yes
Delete leading and trailing silent blocks : No
Null samples used in CRC calculations : Yes
Used interface : Installed external ASPI interface
Used output format : User Defined Encoder
Selected bitrate : 768 kBit/s
Quality : High
Add ID3 tag : No
Command line compressor : C:\Program Files\Exact Audio Copy\Flac\flac.exe
Additional command line options : -8 -V -T "ARTIST=%a" -T "TITLE=%t" -T "ALBUM=%g" -T "DATE=%y" -T "TRACKNUMBER=%n" -T "GENRE=%m" -T "COMMENT=%e" %s -o %d
TOC of the extracted CD
Track | Start | Length | Start sector | End sector
---------------------------------------------------------
1 | 0:00.32 | 6:56.00 | 32 | 31231
2 | 6:56.32 | 6:16.73 | 31232 | 59504
3 | 13:13.30 | 2:50.02 | 59505 | 72256
4 | 16:03.32 | 5:28.18 | 72257 | 96874
5 | 21:31.50 | 1:54.05 | 96875 | 105429
6 | 23:25.55 | 1:07.35 | 105430 | 110489
7 | 24:33.15 | 7:06.45 | 110490 | 142484
8 | 31:39.60 | 5:42.47 | 142485 | 168181
9 | 37:22.32 | 6:42.10 | 168182 | 198341
10 | 44:04.42 | 2:04.55 | 198342 | 207696
11 | 46:09.22 | 9:15.40 | 207697 | 249361
Range status and errors
Selected range
Filename C:\Dead Can Dance . 1993 . Into the Labyrinth (RTD 120.1993.2)\Dead Can Dance . 1993 . Into the Labyrinth (RTD 120.1993.2).wav
Peak level 100.0 %
Range quality 100.0 %
Test CRC 9DC13154
Copy CRC 9DC13154
Copy OK
No errors occurred
AccurateRip summary
Track 1 accurately ripped (confidence 54) [2924B492]
Track 2 accurately ripped (confidence 53) [51B386C3]
Track 3 accurately ripped (confidence 52) [BED6A035]
Track 4 accurately ripped (confidence 55) [84C9E276]
Track 5 accurately ripped (confidence 55) [62A7EC50]
Track 6 accurately ripped (confidence 55) [6D391852]
Track 7 accurately ripped (confidence 54) [DA012FA8]
Track 8 accurately ripped (confidence 55) [2DF9A64D]
Track 9 accurately ripped (confidence 54) [E9E91EF3]
Track 10 accurately ripped (confidence 53) [0CE419D1]
Track 11 accurately ripped (confidence 52) [A301890E]
All tracks accurately ripped
End of status report
REM GENRE Darkwave
REM DATE 1993
REM DISCID 9E0CFC0B
REM COMMENT "ExactAudioCopy v0.99pb4"
PERFORMER "Dead Can Dance"
TITLE "Into the Labyrinth (RTD 120.1993.2)"
FILE "Dead Can Dance . 1993 . Into the Labyrinth (RTD 120.1993.2).flac" WAVE
TRACK 01 AUDIO
TITLE "Yulunga (Spirit Dance)"
PERFORMER "Dead Can Dance"
INDEX 00 00:00:00
INDEX 01 00:00:32
TRACK 02 AUDIO
TITLE "The Ubiquitous Mr. Lovegrove"
PERFORMER "Dead Can Dance"
INDEX 01 06:56:32
TRACK 03 AUDIO
TITLE "The Wind That Shakes the Barley"
PERFORMER "Dead Can Dance"
INDEX 01 13:13:30
TRACK 04 AUDIO
TITLE "The Carnival Is Over"
PERFORMER "Dead Can Dance"
INDEX 01 16:03:32
TRACK 05 AUDIO
TITLE "Ariadne"
PERFORMER "Dead Can Dance"
INDEX 01 21:31:50
TRACK 06 AUDIO
TITLE "Saldek"
PERFORMER "Dead Can Dance"
INDEX 01 23:25:55
TRACK 07 AUDIO
TITLE "Towards the Within"
PERFORMER "Dead Can Dance"
INDEX 00 24:32:70
INDEX 01 24:33:15
TRACK 08 AUDIO
TITLE "Tell Me About the Forest (You Once Called Home)"
PERFORMER "Dead Can Dance"
INDEX 01 31:39:60
TRACK 09 AUDIO
TITLE "The Spider's Stratagem"
PERFORMER "Dead Can Dance"
INDEX 01 37:22:32
TRACK 10 AUDIO
TITLE "Emmeleia"
PERFORMER "Dead Can Dance"
INDEX 01 44:04:42
TRACK 11 AUDIO
TITLE "How Fortunate the Man with None"
PERFORMER "Dead Can Dance"
INDEX 00 46:08:60
INDEX 01 46:09:22
-
Toward The Within- Дата выпуска альбома: 10/1994
CD: Germany/(Austria), 4.A.D./Rough Trade, RTD 120.1994.2, (1994)
Продолжительность: 67:56-Tracklist:

1. Rakim 6:26
2. Persian Love Song 2:56
3. Desert Song 4:20
4. Yulunga (Spirit Dance) 7:12
5. Piece For Solo Flute 3:34
6. The Wind That Shakes The Barley 3:12
7. I Am Stretched On Your Grave 4:38
8. I Can See Now 2:56
9. American Dreaming 4:55
10. Cantara 5:15
11. Oman 5:49
12. Song Of The Sibyl [Traditional Version] 4:31
13. Tristan 1:48
14. Sanvean 4:05
15. Don't Fade Away 6:13
-Credits:
Lisa Gerrard: Voice, Yang Ch'in, Percussion
Brendan Perry: Voice, 12 String Guitar, Percussion, Irish Bouzouki, D Whistle
Robert Perry: Willean Pipes, Irish Bouzouki, Low D Whistle, Percussion
John Bonnar: Keyboards, Voice, Percussion
Ronan O'Snodaigh: Percussion, Voice
Andrew Claxton: Keyboards
Lance Hogan: Bass Guitar, 6 String Guitar, Percussion, Voice
Recorded Live at The Mayfair Theatre, Santa Monica, California.
-
Exact Audio Copy V0.99 prebeta 4 from 23. January 2008
EAC extraction logfile from 3. May 2010, 23:43
Dead Can Dance / Toward The Within (RTD 120.1994.2)
Used drive : PIONEER DVD-RW DVR-105 Adapter: 0 ID: 1
Read mode : Secure
Utilize accurate stream : Yes
Defeat audio cache : Yes
Make use of C2 pointers : No
Read offset correction : 48
Overread into Lead-In and Lead-Out : No
Fill up missing offset samples with silence : Yes
Delete leading and trailing silent blocks : No
Null samples used in CRC calculations : Yes
Used interface : Installed external ASPI interface
Used output format : User Defined Encoder
Selected bitrate : 768 kBit/s
Quality : High
Add ID3 tag : No
Command line compressor : C:\Program Files\Exact Audio Copy\Flac\flac.exe
Additional command line options : -8 -V -T "ARTIST=%a" -T "TITLE=%t" -T "ALBUM=%g" -T "DATE=%y" -T "TRACKNUMBER=%n" -T "GENRE=%m" -T "COMMENT=%e" %s -o %d
TOC of the extracted CD
Track | Start | Length | Start sector | End sector
---------------------------------------------------------
1 | 0:00.32 | 6:26.00 | 32 | 28981
2 | 6:26.32 | 2:56.25 | 28982 | 42206
3 | 9:22.57 | 4:20.73 | 42207 | 61779
4 | 13:43.55 | 7:12.00 | 61780 | 94179
5 | 20:55.55 | 3:34.22 | 94180 | 110251
6 | 24:30.02 | 3:12.08 | 110252 | 124659
7 | 27:42.10 | 4:38.47 | 124660 | 145556
8 | 32:20.57 | 2:56.38 | 145557 | 158794
9 | 35:17.20 | 4:55.10 | 158795 | 180929
10 | 40:12.30 | 5:15.72 | 180930 | 204626
11 | 45:28.27 | 5:49.38 | 204627 | 230839
12 | 51:17.65 | 4:31.32 | 230840 | 251196
13 | 55:49.22 | 1:48.53 | 251197 | 259349
14 | 57:38.00 | 4:05.17 | 259350 | 277741
15 | 61:43.17 | 6:13.38 | 277742 | 305754
Range status and errors
Selected range
Filename C:\Dead Can Dance . 1994 . Toward The Within (RTD 120.1994.2)\Dead Can Dance . 1994 . Toward The Within (RTD 120.1994.2).wav
Peak level 98.7 %
Range quality 99.9 %
Test CRC 462FDD66
Copy CRC 462FDD66
Copy OK
No errors occurred
AccurateRip summary
Track 1 accurately ripped (confidence 50) [97897C1D]
Track 2 accurately ripped (confidence 49) [2FFC8512]
Track 3 accurately ripped (confidence 49) [AD642D53]
Track 4 accurately ripped (confidence 49) [6B512221]
Track 5 accurately ripped (confidence 50) [B035BEEC]
Track 6 accurately ripped (confidence 50) [F5E35CFF]
Track 7 accurately ripped (confidence 50) [863635EF]
Track 8 accurately ripped (confidence 48) [9B1D7E15]
Track 9 accurately ripped (confidence 49) [4341D757]
Track 10 accurately ripped (confidence 48) [828D2846]
Track 11 accurately ripped (confidence 49) [B0EFA1F3]
Track 12 accurately ripped (confidence 49) [421CF40E]
Track 13 accurately ripped (confidence 49) [FEC4C936]
Track 14 accurately ripped (confidence 49) [F389A5AB]
Track 15 accurately ripped (confidence 47) [D6AC999E]
All tracks accurately ripped
End of status report
REM GENRE Gothic
REM DATE 1994
REM DISCID D00FEC0F
REM COMMENT "ExactAudioCopy v0.99pb4"
PERFORMER "Dead Can Dance"
TITLE "Toward The Within (RTD 120.1994.2)"
FILE "Dead Can Dance . 1994 . Toward The Within (RTD 120.1994.2).flac" WAVE
TRACK 01 AUDIO
TITLE "Rakim"
PERFORMER "Dead Can Dance"
INDEX 00 00:00:00
INDEX 01 00:00:32
TRACK 02 AUDIO
TITLE "Persian love song"
PERFORMER "Dead Can Dance"
INDEX 01 06:26:32
TRACK 03 AUDIO
TITLE "Desert song"
PERFORMER "Dead Can Dance"
INDEX 01 09:22:57
TRACK 04 AUDIO
TITLE "Yulunga (spirit dance)"
PERFORMER "Dead Can Dance"
INDEX 01 13:43:55
TRACK 05 AUDIO
TITLE "Piece for solo Flute"
PERFORMER "Dead Can Dance"
INDEX 01 20:55:55
TRACK 06 AUDIO
TITLE "The wind that shakes the barley"
PERFORMER "Dead Can Dance"
INDEX 01 24:30:02
TRACK 07 AUDIO
TITLE "I am stretched on your grave"
PERFORMER "Dead Can Dance"
INDEX 01 27:42:10
TRACK 08 AUDIO
TITLE "I can see now"
PERFORMER "Dead Can Dance"
INDEX 01 32:20:57
TRACK 09 AUDIO
TITLE "American dreaming"
PERFORMER "Dead Can Dance"
INDEX 01 35:17:20
TRACK 10 AUDIO
TITLE "Cantara"
PERFORMER "Dead Can Dance"
INDEX 01 40:12:30
TRACK 11 AUDIO
TITLE "Oman"
PERFORMER "Dead Can Dance"
INDEX 00 45:28:26
INDEX 01 45:28:27
TRACK 12 AUDIO
TITLE "Song of the Sibyl"
PERFORMER "Dead Can Dance"
INDEX 01 51:17:65
TRACK 13 AUDIO
TITLE "Tristan"
PERFORMER "Dead Can Dance"
INDEX 01 55:49:22
TRACK 14 AUDIO
TITLE "Sanvean"
PERFORMER "Dead Can Dance"
INDEX 01 57:38:00
TRACK 15 AUDIO
TITLE "Don't fade away"
PERFORMER "Dead Can Dance"
INDEX 01 61:43:17
-
spiritchaser- Дата выпуска альбома: 6/1996
CD: Germany/(Austria), 4.A.D./Rough Trade, RTD 120.2050.2, (1996)
Продолжительность: 51:57-Tracklist:

1. Nierika 5:45
2. Song Of The Stars 10:12
3. Indus 9:23
4. Song Of The Dispossessed 4:55
5. Dedicac� Out� 1:14
6. The Snake And The Moon 6:11
7. Song Of The Nile 8:00
8. Devorzhum 6:13
-Credits:
Renaud Pion: Turkish Clarinet on 'Indus'
Peter Ulrich, Lance Hogan, Ronan O'Snodaigh, Robert Perry: Percussion on 'Nierika' & 'Dedicace Outo'
All other instruments and voices performed by Brendan Perry and Lisa Gerrard
Written, recorded and produced by Brendan Perry and Lisa Gerrard at Quivy Church.

-
Exact Audio Copy V0.99 prebeta 4 from 23. January 2008
EAC extraction logfile from 4. May 2010, 0:40
Dead Can Dance / Spiritchaser (RTD 120.2050.2)
Used drive : PIONEER DVD-RW DVR-105 Adapter: 0 ID: 1
Read mode : Secure
Utilize accurate stream : Yes
Defeat audio cache : Yes
Make use of C2 pointers : No
Read offset correction : 48
Overread into Lead-In and Lead-Out : No
Fill up missing offset samples with silence : Yes
Delete leading and trailing silent blocks : No
Null samples used in CRC calculations : Yes
Used interface : Installed external ASPI interface
Used output format : User Defined Encoder
Selected bitrate : 768 kBit/s
Quality : High
Add ID3 tag : No
Command line compressor : C:\Program Files\Exact Audio Copy\Flac\flac.exe
Additional command line options : -8 -V -T "ARTIST=%a" -T "TITLE=%t" -T "ALBUM=%g" -T "DATE=%y" -T "TRACKNUMBER=%n" -T "GENRE=%m" -T "COMMENT=%e" %s -o %d
TOC of the extracted CD
Track | Start | Length | Start sector | End sector
---------------------------------------------------------
1 | 0:00.32 | 5:45.28 | 32 | 25934
2 | 5:45.60 | 10:12.70 | 25935 | 71904
3 | 15:58.55 | 9:23.47 | 71905 | 114176
4 | 25:22.27 | 4:55.20 | 114177 | 136321
5 | 30:17.47 | 1:14.08 | 136322 | 141879
6 | 31:31.55 | 6:11.45 | 141880 | 169749
7 | 37:43.25 | 8:00.10 | 169750 | 205759
8 | 45:43.35 | 6:13.42 | 205760 | 233776
Range status and errors
Selected range
Filename C:\Dead Can Dance . 1996 . Spiritchaser (RTD 120.2050.2)\Dead Can Dance . 1996 . Spiritchaser (RTD 120.2050.2).wav
Peak level 99.2 %
Range quality 100.0 %
Test CRC 346944A7
Copy CRC 346944A7
Copy OK
No errors occurred
AccurateRip summary
Track 1 accurately ripped (confidence 60) [0B22E1C8]
Track 2 accurately ripped (confidence 59) [407FE8F4]
Track 3 accurately ripped (confidence 60) [0B3BC782]
Track 4 accurately ripped (confidence 59) [9F5BE7A6]
Track 5 accurately ripped (confidence 60) [96D39CD2]
Track 6 accurately ripped (confidence 61) [57377BB6]
Track 7 accurately ripped (confidence 58) [02481033]
Track 8 accurately ripped (confidence 58) [F04A4109]
All tracks accurately ripped
End of status report
REM GENRE Gothic
REM DATE 1996
REM DISCID 740C2D08
REM COMMENT "ExactAudioCopy v0.99pb4"
PERFORMER "Dead Can Dance"
TITLE "Spiritchaser (RTD 120.2050.2)"
FILE "Dead Can Dance . 1996 . Spiritchaser (RTD 120.2050.2).flac" WAVE
TRACK 01 AUDIO
TITLE "Nierika"
PERFORMER "Dead Can Dance"
INDEX 00 00:00:00
INDEX 01 00:00:32
TRACK 02 AUDIO
TITLE "Song of the Stars"
PERFORMER "Dead Can Dance"
INDEX 00 05:44:35
INDEX 01 05:45:60
TRACK 03 AUDIO
TITLE "Indus"
PERFORMER "Dead Can Dance"
INDEX 01 15:58:55
TRACK 04 AUDIO
TITLE "Song of the Dispossessed"
PERFORMER "Dead Can Dance"
INDEX 01 25:22:27
TRACK 05 AUDIO
TITLE "DedicacÈ Outo"
PERFORMER "Dead Can Dance"
INDEX 01 30:17:47
TRACK 06 AUDIO
TITLE "The Snake and the Moon"
PERFORMER "Dead Can Dance"
INDEX 01 31:31:55
TRACK 07 AUDIO
TITLE "Song of the Nile"
PERFORMER "Dead Can Dance"
INDEX 01 37:43:25
TRACK 08 AUDIO
TITLE "Devorzhum"
PERFORMER "Dead Can Dance"
INDEX 01 45:43:35
-
wake- Дата выпуска альбома: 5 May 2003
CD: EU, 4 A.D., DAD 2303 CD, (2003)
Продолжительность: 60:53 + 72:03-Tracklist:
1-1. Frontier (Demo) 3:00
1-2. Anywhere Out Of The World 5:07
1-3. Enigma Of The Absolute 4:14
1-4. Carnival Of Light 3:30
1-5. In Power We Entrust The Love Advocated 4:10
1-6. Summoning Of The Muse 4:57
1-7. Windfall 3:31
1-8. In The Kingdom Of The Blind The One-Eyed Are Kings 4:10
1-9. The Host Of Seraphim 6:17
1-10. Bird 5:00
1-11. Cantara 5:58
1-12. Severance 3:21
1-13. Saltarello 2:36
1-14. Black Sun 4:56
2-1. Yulunga 6:57
2-2. The Carnival Is Over 5:42
2-3. The Lotus Eaters 6:42
2-4. Rakim 5:38
2-5. The Ubiquitous Mr. Lovegrove 6:14
2-6. Sanvean 3:46
2-7. Song Of The Nile 8:00
2-8. The Spider's Stratagem 6:41
2-9. I Can See Now 2:56
2-10. American Dreaming 4:30
2-11. Nierika 5:45
2-12. How Fortunate The Man With None 9:09
-
Exact Audio Copy V1.0 beta 3 from 29. August 2011
EAC extraction logfile from 18. December 2012, 21:02
Dead Can Dance / Wake (DAD 2303 CD) CD 1
Used drive : HL-DT-STDVDRAM GE20NU11 Adapter: 0 ID: 1
Read mode : Secure
Utilize accurate stream : Yes
Defeat audio cache : Yes
Make use of C2 pointers : No
Read offset correction : 667
Overread into Lead-In and Lead-Out : No
Fill up missing offset samples with silence : Yes
Delete leading and trailing silent blocks : No
Null samples used in CRC calculations : Yes
Used interface : Native Win32 interface for Win NT & 2000
Used output format : User Defined Encoder
Selected bitrate : 896 kBit/s
Quality : High
Add ID3 tag : No
Command line compressor : C:\Program Files\EAC 3\Exact Audio Copy\Flac\flac.exe
Additional command line options : -V -8 %source%
TOC of the extracted CD
Track | Start | Length | Start sector | End sector
---------------------------------------------------------
1 | 0:00.00 | 3:00.57 | 0 | 13556
2 | 3:00.57 | 5:07.33 | 13557 | 36614
3 | 8:08.15 | 4:14.37 | 36615 | 55701
4 | 12:22.52 | 3:30.53 | 55702 | 71504
5 | 15:53.30 | 4:10.10 | 71505 | 90264
6 | 20:03.40 | 4:57.47 | 90265 | 112586
7 | 25:01.12 | 3:31.48 | 112587 | 128459
8 | 28:32.60 | 4:10.37 | 128460 | 147246
9 | 32:43.22 | 6:17.13 | 147247 | 175534
10 | 39:00.35 | 5:00.25 | 175535 | 198059
11 | 44:00.60 | 5:58.27 | 198060 | 224936
12 | 49:59.12 | 3:21.15 | 224937 | 240026
13 | 53:20.27 | 2:36.48 | 240027 | 251774
14 | 55:57.00 | 4:56.02 | 251775 | 273976
Range status and errors
Selected range
Filename C:\OdW\Dead Can Dance . 2003 . Wake (DAD 2303 CD)\CD 1\Dead Can Dance - Wake (DAD 2303 CD) CD 1.wav
Peak level 100.0 %
Extraction speed 1.3 X
Range quality 99.9 %
Test CRC 1BE1D246
Copy CRC 1BE1D246
Copy OK
No errors occurred
AccurateRip summary
Track 1 accurately ripped (confidence 9) [780E7FD3] (AR v2)
Track 2 accurately ripped (confidence 9) [CEA62DF5] (AR v2)
Track 3 accurately ripped (confidence 9) [356732D0] (AR v2)
Track 4 accurately ripped (confidence 9) [6823E2C7] (AR v2)
Track 5 accurately ripped (confidence 8) [52CAF2C3] (AR v2)
Track 6 accurately ripped (confidence 9) [4FE10F2C] (AR v2)
Track 7 accurately ripped (confidence 8) [0FB0B6CE] (AR v2)
Track 8 accurately ripped (confidence 9) [0B515CB5] (AR v2)
Track 9 accurately ripped (confidence 9) [C50DB2A0] (AR v2)
Track 10 accurately ripped (confidence 9) [6503BEC0] (AR v2)
Track 11 accurately ripped (confidence 8) [4C440C4A] (AR v2)
Track 12 accurately ripped (confidence 8) [3515319D] (AR v2)
Track 13 accurately ripped (confidence 8) [1BAD64A1] (AR v2)
Track 14 accurately ripped (confidence 9) [4A87EDD3] (AR v2)
All tracks accurately ripped
End of status report
==== Log checksum 4F89FE540E9F12DE80B131E80FFF0AD29FB607150F531F13E05534EC6210AFE1 ====
Exact Audio Copy V1.0 beta 3 from 29. August 2011
EAC extraction logfile from 18. December 2012, 22:44
Dead Can Dance / Wake (DAD 2303 CD) CD 2
Used drive : HL-DT-STDVDRAM GE20NU11 Adapter: 0 ID: 1
Read mode : Secure
Utilize accurate stream : Yes
Defeat audio cache : Yes
Make use of C2 pointers : No
Read offset correction : 667
Overread into Lead-In and Lead-Out : No
Fill up missing offset samples with silence : Yes
Delete leading and trailing silent blocks : No
Null samples used in CRC calculations : Yes
Used interface : Native Win32 interface for Win NT & 2000
Used output format : User Defined Encoder
Selected bitrate : 896 kBit/s
Quality : High
Add ID3 tag : No
Command line compressor : C:\Program Files\EAC 3\Exact Audio Copy\Flac\flac.exe
Additional command line options : -V -8 %source%
TOC of the extracted CD
Track | Start | Length | Start sector | End sector
---------------------------------------------------------
1 | 0:00.00 | 6:57.07 | 0 | 31281
2 | 6:57.07 | 5:42.45 | 31282 | 56976
3 | 12:39.52 | 6:42.30 | 56977 | 87156
4 | 19:22.07 | 5:38.23 | 87157 | 112529
5 | 25:00.30 | 6:14.12 | 112530 | 140591
6 | 31:14.42 | 3:46.35 | 140592 | 157576
7 | 35:01.02 | 8:00.35 | 157577 | 193611
8 | 43:01.37 | 6:41.08 | 193612 | 223694
9 | 49:42.45 | 2:56.05 | 223695 | 236899
10 | 52:38.50 | 4:30.07 | 236900 | 257156
11 | 57:08.57 | 5:45.10 | 257157 | 283041
12 | 62:53.67 | 9:09.63 | 283042 | 324279
Range status and errors
Selected range
Filename C:\OdW\Dead Can Dance . 2003 . Wake (DAD 2303 CD)\CD 2\Dead Can Dance - Wake (DAD 2303 CD) CD 2.wav
Peak level 100.0 %
Extraction speed 1.4 X
Range quality 100.0 %
Test CRC 8318692B
Copy CRC 8318692B
Copy OK
No errors occurred
AccurateRip summary
Track 1 accurately ripped (confidence 8) [1D5ED357] (AR v2)
Track 2 accurately ripped (confidence 8) [CF8E5C2C] (AR v2)
Track 3 accurately ripped (confidence 8) [98BCEB1B] (AR v2)
Track 4 accurately ripped (confidence 8) [5C9D9495] (AR v2)
Track 5 accurately ripped (confidence 8) [4823E868] (AR v2)
Track 6 accurately ripped (confidence 8) [DE315415] (AR v2)
Track 7 accurately ripped (confidence 8) [95E46539] (AR v2)
Track 8 accurately ripped (confidence 7) [6D6629BA] (AR v2)
Track 9 accurately ripped (confidence 7) [E2949845] (AR v2)
Track 10 accurately ripped (confidence 8) [11F65012] (AR v2)
Track 11 accurately ripped (confidence 8) [D2B769C4] (AR v2)
Track 12 accurately ripped (confidence 7) [ABFBDA87] (AR v2)
All tracks accurately ripped
End of status report
==== Log checksum 281E341D0622BD6DAB49FA88EBF25BD7C38CA053A42812CF65A60AEBE1300BC1 ====
[свернуть]
REM GENRE Darkwave
REM DATE 2003
REM DISCID A70E450E
REM COMMENT "ExactAudioCopy v1.0b3"
PERFORMER "Dead Can Dance"
TITLE "Wake (DAD 2303 CD) CD 1"
FILE "Dead Can Dance - Wake (DAD 2303 CD) CD 1.flac" WAVE
TRACK 01 AUDIO
TITLE "Frontier (Demo)"
PERFORMER "Dead Can Dance"
INDEX 01 00:00:00
TRACK 02 AUDIO
TITLE "Anywhere Out Of The World"
PERFORMER "Dead Can Dance"
INDEX 00 02:59:52
INDEX 01 03:00:57
TRACK 03 AUDIO
TITLE "Enigma Of The Absolute"
PERFORMER "Dead Can Dance"
INDEX 00 08:07:10
INDEX 01 08:08:15
TRACK 04 AUDIO
TITLE "Carnival Of Light"
PERFORMER "Dead Can Dance"
INDEX 00 12:20:50
INDEX 01 12:22:52
TRACK 05 AUDIO
TITLE "In Power We Entrust The Love Advocated"
PERFORMER "Dead Can Dance"
INDEX 01 15:53:30
TRACK 06 AUDIO
TITLE "Summoning Of The Muse"
PERFORMER "Dead Can Dance"
INDEX 01 20:03:40
TRACK 07 AUDIO
TITLE "Windfall"
PERFORMER "Dead Can Dance"
INDEX 00 25:00:00
INDEX 01 25:01:12
TRACK 08 AUDIO
TITLE "In The Kingdom Of The Blind The One-Eyed Are Kings"
PERFORMER "Dead Can Dance"
INDEX 00 28:31:32
INDEX 01 28:32:60
TRACK 09 AUDIO
TITLE "The Host Of Seraphim"
PERFORMER "Dead Can Dance"
INDEX 01 32:43:22
TRACK 10 AUDIO
TITLE "Bird"
PERFORMER "Dead Can Dance"
INDEX 00 38:59:25
INDEX 01 39:00:35
TRACK 11 AUDIO
TITLE "Cantara"
PERFORMER "Dead Can Dance"
INDEX 00 43:59:45
INDEX 01 44:00:60
TRACK 12 AUDIO
TITLE "Severance"
PERFORMER "Dead Can Dance"
INDEX 00 49:57:47
INDEX 01 49:59:12
TRACK 13 AUDIO
TITLE "Saltarello"
PERFORMER "Dead Can Dance"
INDEX 01 53:20:27
TRACK 14 AUDIO
TITLE "Black Sun"
PERFORMER "Dead Can Dance"
INDEX 00 55:55:72
INDEX 01 55:57:00
REM GENRE Darkwave
REM DATE 2003
REM DISCID A110E30C
REM COMMENT "ExactAudioCopy v1.0b3"
PERFORMER "Dead Can Dance"
TITLE "Wake (DAD 2303 CD) CD 2"
FILE "Dead Can Dance - Wake (DAD 2303 CD) CD 2.flac" WAVE
TRACK 01 AUDIO
TITLE "Yulunga"
PERFORMER "Dead Can Dance"
INDEX 01 00:00:00
TRACK 02 AUDIO
TITLE "The Carnival Is Over"
PERFORMER "Dead Can Dance"
INDEX 00 06:55:70
INDEX 01 06:57:07
TRACK 03 AUDIO
TITLE "The Lotus Eaters"
PERFORMER "Dead Can Dance"
INDEX 01 12:39:52
TRACK 04 AUDIO
TITLE "Rakim"
PERFORMER "Dead Can Dance"
INDEX 01 19:22:07
TRACK 05 AUDIO
TITLE "The Ubiquitous Mr. Lovegrove"
PERFORMER "Dead Can Dance"
INDEX 01 25:00:30
TRACK 06 AUDIO
TITLE "Sanvean"
PERFORMER "Dead Can Dance"
INDEX 01 31:14:42
TRACK 07 AUDIO
TITLE "Song Of The Nile"
PERFORMER "Dead Can Dance"
INDEX 01 35:01:02
TRACK 08 AUDIO
TITLE "The Spider's Stratagem"
PERFORMER "Dead Can Dance"
INDEX 01 43:01:37
TRACK 09 AUDIO
TITLE "I Can See Now"
PERFORMER "Dead Can Dance"
INDEX 01 49:42:45
TRACK 10 AUDIO
TITLE "American Dreaming"
PERFORMER "Dead Can Dance"
INDEX 01 52:38:50
TRACK 11 AUDIO
TITLE "Nierika"
PERFORMER "Dead Can Dance"
INDEX 00 57:07:30
INDEX 01 57:08:57
TRACK 12 AUDIO
TITLE "How Fortunate The Man With None"
PERFORMER "Dead Can Dance"
INDEX 00 62:52:20
INDEX 01 62:53:67
[свернуть]
-
LIVE HAPPENINGS I-V- Дата выпуска альбома: 26 July 2012
WEB Release
Продолжительность: 21:21 + 26:02 + 19:52 + 18:35 + 28:54-
1. Nierika
2. Babylon
3. Compassion
4. The Ubiquitous Mr. Lovegrove
1. The Love That Cannot Be
2. The Lotus Eaters
3. Crescent
4. Minus Sanctus
1. Saltarello
2. The Wind That Shakes The Barley
3. How Fortunate The Man With None
4. Dreams Made Flesh
1. I Can See Now
2. American Dreaming
3. Sanvean
4. Rakim
1. Black Sun
2. Salem's Lot
3. Yulunga
4. Severance
5. Hymn For The Fallen

-
AUDIOCHECKER v2.0 beta (build 457) - by Dester - [email protected]~~~~~~~~~~~~~~~~~~~~~~~~~~~~~~~~~~
Started at: вторник, 18. 12. 2012. - 23:15.0042 files found
01 -===- Y:\Desktop\Dead Can Dance (2012) Live Happenings\Live Happenings - Part I\01 Nierika.flac Extracted successfully Conclusion: this track is CDDA with probability 100% Tempfile successfully deleted.
02 -===- Y:\Desktop\Dead Can Dance (2012) Live Happenings\Live Happenings - Part I\02 Babylon.flac Extracted successfully Conclusion: this track is CDDA with probability 100% Tempfile successfully deleted.
03 -===- Y:\Desktop\Dead Can Dance (2012) Live Happenings\Live Happenings - Part I\03 Compassion.flac Extracted successfully Conclusion: this track is CDDA with probability 100% Tempfile successfully deleted.
04 -===- Y:\Desktop\Dead Can Dance (2012) Live Happenings\Live Happenings - Part I\04 The Ubiquitous Mr_ Lovegrove.flac Extracted successfully Conclusion: this track is CDDA with probability 99% Tempfile successfully deleted.
05 -===- Y:\Desktop\Dead Can Dance (2012) Live Happenings\Live Happenings - Part II\01 The Love That Cannot Be.flac Extracted successfully Conclusion: this track is CDDA with probability 100% Tempfile successfully deleted.
06 -===- Y:\Desktop\Dead Can Dance (2012) Live Happenings\Live Happenings - Part II\02 The Lotus Eaters.flac Extracted successfully Conclusion: this track is CDDA with probability 100% Tempfile successfully deleted.
07 -===- Y:\Desktop\Dead Can Dance (2012) Live Happenings\Live Happenings - Part II\03 Crescent.flac Extracted successfully Conclusion: this track is CDDA with probability 100% Tempfile successfully deleted.
08 -===- Y:\Desktop\Dead Can Dance (2012) Live Happenings\Live Happenings - Part II\04 Minus Sanctus.flac Extracted successfully Conclusion: this track is CDDA with probability 100% Tempfile successfully deleted.
09 -===- Y:\Desktop\Dead Can Dance (2012) Live Happenings\Live Happenings - Part III\01 Saltarello.flac Extracted successfully Conclusion: this track is CDDA with probability 100% Tempfile successfully deleted.
10 -===- Y:\Desktop\Dead Can Dance (2012) Live Happenings\Live Happenings - Part III\02 The Wind That Shakes The Barley.flac Extracted successfully Conclusion: this track is CDDA with probability 99% Tempfile successfully deleted.
11 -===- Y:\Desktop\Dead Can Dance (2012) Live Happenings\Live Happenings - Part III\03 How Fortunate The Man With None.flac Extracted successfully Conclusion: this track is CDDA with probability 99% Tempfile successfully deleted.
12 -===- Y:\Desktop\Dead Can Dance (2012) Live Happenings\Live Happenings - Part III\04 Dreams Made Flesh.flac Extracted successfully Conclusion: this track is CDDA with probability 100% Tempfile successfully deleted.
13 -===- Y:\Desktop\Dead Can Dance (2012) Live Happenings\Live Happenings - Part IV\01 I Can See Now.flac Extracted successfully Conclusion: this track is CDDA with probability 100% Tempfile successfully deleted.
14 -===- Y:\Desktop\Dead Can Dance (2012) Live Happenings\Live Happenings - Part IV\02 American Dreaming.flac Extracted successfully Conclusion: this track is CDDA with probability 100% Tempfile successfully deleted.
15 -===- Y:\Desktop\Dead Can Dance (2012) Live Happenings\Live Happenings - Part IV\03 Sanvean.flac Extracted successfully Conclusion: this track is CDDA with probability 100% Tempfile successfully deleted.
16 -===- Y:\Desktop\Dead Can Dance (2012) Live Happenings\Live Happenings - Part IV\04 Rakim.flac Extracted successfully Conclusion: this track is CDDA with probability 100% Tempfile successfully deleted.
17 -===- Y:\Desktop\Dead Can Dance (2012) Live Happenings\Live Happenings - Part V\01 Black Sun.flac Extracted successfully Conclusion: this track is CDDA with probability 100% Tempfile successfully deleted.
18 -===- Y:\Desktop\Dead Can Dance (2012) Live Happenings\Live Happenings - Part V\02 Salem_s Lot.flac Extracted successfully Conclusion: this track is CDDA with probability 100% Tempfile successfully deleted.
19 -===- Y:\Desktop\Dead Can Dance (2012) Live Happenings\Live Happenings - Part V\03 Yulunga.flac Extracted successfully Conclusion: this track is CDDA with probability 100% Tempfile successfully deleted.
20 -===- Y:\Desktop\Dead Can Dance (2012) Live Happenings\Live Happenings - Part V\04 Severance.flac Extracted successfully Conclusion: this track is CDDA with probability 99% Tempfile successfully deleted.
21 -===- Y:\Desktop\Dead Can Dance (2012) Live Happenings\Live Happenings - Part V\05 Hymn For The Fallen.flac Extracted successfully Conclusion: this track is CDDA with probability 100% Tempfile successfully deleted.
22 -===- Y:\Desktop\Dead Can Dance (2012) Live Happenings\Live Happenings - Parts I-V\untitled folder\Live Happenings - Parts I-V\01 Black Sun.flac Extracted successfully Conclusion: this track is CDDA with probability 100% Tempfile successfully deleted.
23 -===- Y:\Desktop\Dead Can Dance (2012) Live Happenings\Live Happenings - Parts I-V\untitled folder\Live Happenings - Parts I-V\01 I Can See Now.flac Extracted successfully Conclusion: this track is CDDA with probability 100% Tempfile successfully deleted.
24 -===- Y:\Desktop\Dead Can Dance (2012) Live Happenings\Live Happenings - Parts I-V\untitled folder\Live Happenings - Parts I-V\01 Nierika.flac Extracted successfully Conclusion: this track is CDDA with probability 100% Tempfile successfully deleted.
25 -===- Y:\Desktop\Dead Can Dance (2012) Live Happenings\Live Happenings - Parts I-V\untitled folder\Live Happenings - Parts I-V\01 Saltarello.flac Extracted successfully Conclusion: this track is CDDA with probability 100% Tempfile successfully deleted.
26 -===- Y:\Desktop\Dead Can Dance (2012) Live Happenings\Live Happenings - Parts I-V\untitled folder\Live Happenings - Parts I-V\01 The Love That Cannot Be.flac Extracted successfully Conclusion: this track is CDDA with probability 100% Tempfile successfully deleted.
27 -===- Y:\Desktop\Dead Can Dance (2012) Live Happenings\Live Happenings - Parts I-V\untitled folder\Live Happenings - Parts I-V\02 American Dreaming.flac Extracted successfully Conclusion: this track is CDDA with probability 100% Tempfile successfully deleted.
28 -===- Y:\Desktop\Dead Can Dance (2012) Live Happenings\Live Happenings - Parts I-V\untitled folder\Live Happenings - Parts I-V\02 Babylon.flac Extracted successfully Conclusion: this track is CDDA with probability 100% Tempfile successfully deleted.
29 -===- Y:\Desktop\Dead Can Dance (2012) Live Happenings\Live Happenings - Parts I-V\untitled folder\Live Happenings - Parts I-V\02 Salem_s Lot.flac Extracted successfully Conclusion: this track is CDDA with probability 100% Tempfile successfully deleted.
30 -===- Y:\Desktop\Dead Can Dance (2012) Live Happenings\Live Happenings - Parts I-V\untitled folder\Live Happenings - Parts I-V\02 The Lotus Eaters.flac Extracted successfully Conclusion: this track is CDDA with probability 100% Tempfile successfully deleted.
31 -===- Y:\Desktop\Dead Can Dance (2012) Live Happenings\Live Happenings - Parts I-V\untitled folder\Live Happenings - Parts I-V\02 The Wind That Shakes The Barley.flac Extracted successfully Conclusion: this track is CDDA with probability 99% Tempfile successfully deleted.
32 -===- Y:\Desktop\Dead Can Dance (2012) Live Happenings\Live Happenings - Parts I-V\untitled folder\Live Happenings - Parts I-V\03 Compassion.flac Extracted successfully Conclusion: this track is CDDA with probability 100% Tempfile successfully deleted.
33 -===- Y:\Desktop\Dead Can Dance (2012) Live Happenings\Live Happenings - Parts I-V\untitled folder\Live Happenings - Parts I-V\03 Crescent.flac Extracted successfully Conclusion: this track is CDDA with probability 100% Tempfile successfully deleted.
34 -===- Y:\Desktop\Dead Can Dance (2012) Live Happenings\Live Happenings - Parts I-V\untitled folder\Live Happenings - Parts I-V\03 How Fortunate The Man With None.flac Extracted successfully Conclusion: this track is CDDA with probability 99% Tempfile successfully deleted.
35 -===- Y:\Desktop\Dead Can Dance (2012) Live Happenings\Live Happenings - Parts I-V\untitled folder\Live Happenings - Parts I-V\03 Sanvean.flac Extracted successfully Conclusion: this track is CDDA with probability 100% Tempfile successfully deleted.
36 -===- Y:\Desktop\Dead Can Dance (2012) Live Happenings\Live Happenings - Parts I-V\untitled folder\Live Happenings - Parts I-V\03 Yulunga.flac Extracted successfully Conclusion: this track is CDDA with probability 100% Tempfile successfully deleted.
37 -===- Y:\Desktop\Dead Can Dance (2012) Live Happenings\Live Happenings - Parts I-V\untitled folder\Live Happenings - Parts I-V\04 Dreams Made Flesh.flac Extracted successfully Conclusion: this track is CDDA with probability 100% Tempfile successfully deleted.
38 -===- Y:\Desktop\Dead Can Dance (2012) Live Happenings\Live Happenings - Parts I-V\untitled folder\Live Happenings - Parts I-V\04 Minus Sanctus.flac Extracted successfully Conclusion: this track is CDDA with probability 100% Tempfile successfully deleted.
39 -===- Y:\Desktop\Dead Can Dance (2012) Live Happenings\Live Happenings - Parts I-V\untitled folder\Live Happenings - Parts I-V\04 Rakim.flac Extracted successfully Conclusion: this track is CDDA with probability 100% Tempfile successfully deleted.
40 -===- Y:\Desktop\Dead Can Dance (2012) Live Happenings\Live Happenings - Parts I-V\untitled folder\Live Happenings - Parts I-V\04 Severance.flac Extracted successfully Conclusion: this track is CDDA with probability 99% Tempfile successfully deleted.
41 -===- Y:\Desktop\Dead Can Dance (2012) Live Happenings\Live Happenings - Parts I-V\untitled folder\Live Happenings - Parts I-V\04 The Ubiquitous Mr_ Lovegrove.flac Extracted successfully Conclusion: this track is CDDA with probability 99% Tempfile successfully deleted.
42 -===- Y:\Desktop\Dead Can Dance (2012) Live Happenings\Live Happenings - Parts I-V\untitled folder\Live Happenings - Parts I-V\05 Hymn For The Fallen.flac Extracted successfully Conclusion: this track is CDDA with probability 100% Tempfile successfully deleted.
Finished at: среда, 19. 12. 2012. - 0:11.24 (operation time: 0:56.24)
-
ANASTASIS- Дата выпуска альбома: 9 August 2012
CD: USA, PIAS, PIASA55CD, (2012)
Продолжительность: 56:26-Tracklist:
1. Children Of The Sun 7:37
2. Anabasis 6:52
3. Agape 6:55
4. Amnesia 6:38
5. Kiko 8:02
6. Opium 5:46
7. Return Of The She-King 7:52
8. All In Good Time 6:39
-
Exact Audio Copy V1.0 beta 3 from 29. August 2011
EAC extraction logfile from 22. September 2012, 2:01
Dead Can Dance / Anastasis (PIASA55CD)
Used drive : HL-DT-STDVDRAM GE20NU11 Adapter: 0 ID: 1
Read mode : Secure
Utilize accurate stream : Yes
Defeat audio cache : Yes
Make use of C2 pointers : No
Read offset correction : 667
Overread into Lead-In and Lead-Out : No
Fill up missing offset samples with silence : Yes
Delete leading and trailing silent blocks : No
Null samples used in CRC calculations : Yes
Used interface : Native Win32 interface for Win NT & 2000
Used output format : User Defined Encoder
Selected bitrate : 896 kBit/s
Quality : High
Add ID3 tag : No
Command line compressor : C:\Program Files\EAC 3\Exact Audio Copy\Flac\flac.exe
Additional command line options : -V -8 %source%
TOC of the extracted CD
Track | Start | Length | Start sector | End sector
---------------------------------------------------------
1 | 0:00.00 | 7:37.01 | 0 | 34275
2 | 7:37.01 | 6:52.52 | 34276 | 65227
3 | 14:29.53 | 6:55.30 | 65228 | 96382
4 | 21:25.08 | 6:38.32 | 96383 | 126264
5 | 28:03.40 | 8:02.49 | 126265 | 162463
6 | 36:06.14 | 5:46.73 | 162464 | 188486
7 | 41:53.12 | 7:52.68 | 188487 | 223954
8 | 49:46.05 | 6:39.72 | 223955 | 253951
Range status and errors
Selected range
Filename C:\OdW\Dead Can Dance . 2012 . Anastasis (PIASA55CD)\Dead Can Dance - Anastasis (PIASA55CD).wav
Peak level 99.8 %
Extraction speed 1.2 X
Range quality 100.0 %
Test CRC 19EF7AE2
Copy CRC 19EF7AE2
Copy OK
No errors occurred
AccurateRip summary
Track 1 accurately ripped (confidence 3) [364ECF31] (AR v1)
Track 2 accurately ripped (confidence 3) [EF91C1C3] (AR v1)
Track 3 accurately ripped (confidence 3) [FF60F1DD] (AR v1)
Track 4 accurately ripped (confidence 3) [B933D1AE] (AR v1)
Track 5 accurately ripped (confidence 3) [6379FDA5] (AR v1)
Track 6 accurately ripped (confidence 3) [B00674DA] (AR v1)
Track 7 accurately ripped (confidence 3) [86E69616] (AR v1)
Track 8 accurately ripped (confidence 3) [87B8B3AC] (AR v1)
All tracks accurately ripped
End of status report
==== Log checksum ED8221E520F4E8008557C0A0A9D8B5B5E8C9B93FC34E6AB7C61BF1EC3DC0057E ====
REM GENRE Gothic/Darkwave
REM DATE 2012
REM DISCID 830D3A08
REM COMMENT "ExactAudioCopy v1.0b3"
PERFORMER "Dead Can Dance"
TITLE "Anastasis (PIASA55CD)"
FILE "Dead Can Dance - Anastasis (PIASA55CD).flac" WAVE
TRACK 01 AUDIO
TITLE "Children Of The Sun"
PERFORMER "Dead Can Dance"
INDEX 01 00:00:00
TRACK 02 AUDIO
TITLE "Anabasis"
PERFORMER "Dead Can Dance"
INDEX 00 07:34:39
INDEX 01 07:37:01
TRACK 03 AUDIO
TITLE "Agape"
PERFORMER "Dead Can Dance"
INDEX 00 14:27:70
INDEX 01 14:29:53
TRACK 04 AUDIO
TITLE "Amnesia"
PERFORMER "Dead Can Dance"
INDEX 00 21:23:58
INDEX 01 21:25:08
TRACK 05 AUDIO
TITLE "Kiko"
PERFORMER "Dead Can Dance"
INDEX 00 28:02:03
INDEX 01 28:03:40
TRACK 06 AUDIO
TITLE "Opium"
PERFORMER "Dead Can Dance"
INDEX 00 36:05:24
INDEX 01 36:06:14
TRACK 07 AUDIO
TITLE "Return Of The She-King"
PERFORMER "Dead Can Dance"
INDEX 00 41:51:14
INDEX 01 41:53:12
TRACK 08 AUDIO
TITLE "All In Good Time"
PERFORMER "Dead Can Dance"
INDEX 00 49:44:29
INDEX 01 49:46:05
[CUETools log; Date: 22.09.2012 2:05:44; Version: 2.1.4]
[CTDB TOCID: JuyQ5tghdiLym2HEstIPmSdfv3g-] found.
Track | CTDB Status
1 | (51/52) Accurately ripped
2 | (51/52) Accurately ripped
3 | (51/52) Accurately ripped
4 | (51/52) Accurately ripped
5 | (51/52) Accurately ripped
6 | (50/52) Accurately ripped
7 | (49/52) Accurately ripped
8 | (49/52) Accurately ripped
[AccurateRip ID: 00119022-0074c48f-830d3a08] found.
Track [ CRC | V2 ] Status
01 [364ecf31|d78c0bcb] (03+00/12) Accurately ripped
02 [ef91c1c3|a6c0c0a7] (03+00/12) Accurately ripped
03 [ff60f1dd|45cc5e36] (03+00/12) Accurately ripped
04 [b933d1ae|55c1b74d] (03+00/12) Accurately ripped
05 [6379fda5|adc8d126] (03+00/12) Accurately ripped
06 [b00674da|ece4f80c] (03+00/12) Accurately ripped
07 [86e69616|e629ec2e] (03+00/12) Accurately ripped
08 [87b8b3ac|96ee3f78] (03+00/12) Accurately ripped
Offsetted by -12:
01 [84da00f5] (05/12) Accurately ripped
02 [db399cc3] (05/12) Accurately ripped
03 [c1747cd9] (05/12) Accurately ripped
04 [e4d881c6] (05/12) Accurately ripped
05 [76b9b0b9] (05/12) Accurately ripped
06 [825045fa] (05/12) Accurately ripped
07 [f2f4feee] (05/12) Accurately ripped
08 [1880fbc8] (05/12) Accurately ripped
Track Peak [ CRC32 ] [W/O NULL] [ LOG ]
-- 99,8 [19EF7AE2] [B670339A] CRC32
01 99,8 [DB36073A] [F2A6EDB0]
02 99,8 [CC79DA4D] [12D6A6D1]
03 97,2 [DCBA2C18] [2BA9F846]
04 99,8 [E12C39E8] [8E21C6A7]
05 97,7 [E75182F0] [DD733D06]
06 99,8 [FFB103FB] [34B376B8]
07 99,8 [3DA08CCC] [7A862458]
08 99,8 [2715D847] [424C847B]
-
Download / Скачать

Хотите скачать бесплатно? Зарегистрируйтесь на сайте (ссылка на регистрацию). Pirat.ca - самый быстрый торрент трекер в рунете!

Как скачивать  ·   Что такое торрент  ·   Рейтинг и ограничения

Показать сообщения:    
Ответить на тему

Текущее время: Сегодня 18:50

Часовой пояс: GMT + 4



Вы не можете начинать темы
Вы не можете отвечать на сообщения
Вы не можете редактировать свои сообщения
Вы не можете удалять свои сообщения
Вы не можете голосовать в опросах
Вы не можете прикреплять файлы к сообщениям
Вы не можете скачивать файлы

Майнать ▼