Уважаемый Гость!
Вы можете поддержать проект и зарегистрироваться у наших партнеров - онлайн-стратегия MyLands. При регистрации в игре Вы получите код, который сможете активировать после регистрации на pirat.ca и получить 1000 дублонов.

Ваш код:
e97448b672ad9b92bef9c116971d883e11324603
 
     

(Chanson) Елена Ваенга – Белая птица - 2005 (1 CD) [FLAC, tracks+cue, lossless]

Ответить на тему
 
Автор
Сообщение

Пост 07-Фев-2013 23:50

[Q] 

CHARLI2236

Елена Ваенга – Белая птица - 2005 (1 CD)
Год выпуска альбома: 2005
Страна: Россия
Жанр: Chanson
Лейбл издания: Квадро-Паблишинг
Продолжительность: 0:49:32
Формат: FLAC
Битрейт аудио: lossless
Тип рипа: tracks+.cue
Источник (релизер): диск CDDA
Наличие сканов в содержимом раздачи: да
Трэклист
01 - АЭРОПОРТ. (3:15)
02 - ГОВОРИ, ГОВОРИ.... (4:28)
03 - ТАЙГА. (4:50)
04 - БЕЛАЯ ПТИЦА. (4:02)
05 - РАДУГА. (3:26)
06 - КОСОЛАПАЯ ЛЮБОВЬ. (3:04)
07 - ЖАЛЬ. (3:12)
08 - ЗОЛОТАЯ РЫБКА. (2:51)
09 - ЯГОДА. (3:30)
10 - ТОПОЛЯ. (3:42)
11 - ПАШКА. (3:17)
12 - СОЛОМОН. (3:19)
13 - ЖЕЛАЮ. (2:34)
14 - 'ШОПЕН'. (3:55)
”Отчет ЕАС”
Отчёт EAC об извлечении, выполненном 7. февраля 2013, 12:24 для диска:
Елена Ваенга / БЕЛАЯ ПТИЦА
Дисковод: _NEC DVD_RW ND-4550A Adapter: 0 ID: 1
Режим чтения: Достоверный (C2: нет, Точный поток: да, Отключение кэша: да)
Коррекция смещения при чтении: 48
Способность читать области Lead-in и Lead-out : Нет
Выходной формат: C:\Program Files\FLAC\flac.exe (Пользовательский кодировщик)
128 kBit/s
Дополнительные параметры: -8 -V -T "ARTIST=%a" -T "TITLE=%t" -T "ALBUM=%g" -T "DATE=%y" -T "TRACKNUMBER=%n" -T "GENRE=%m" -T "COMMENT=EAC FLAC -8" %s
Другие параметры:
Заполнение пропущенных сэмплов тишиной : Да
Удаление блоков с тишиной в начале и конце : Нет
Встроенный Win32-интерфейс для Win NT/2000
Трек 1
Имя файла C:\Sergei\новая папка\01 - АЭРОПОРТ.wav
Длина предзазора 0:00:02.00
Пиковый уровень 98.8 %
Качество трека 100.0 %
CRC теста A5D2C4A0
CRC копии A5D2C4A0
Копирование... OK
Трек 2
Имя файла C:\Sergei\новая папка\02 - ГОВОРИ, ГОВОРИ....wav
Пиковый уровень 98.8 %
Качество трека 100.0 %
CRC теста 0859BD16
CRC копии 0859BD16
Копирование... OK
Трек 3
Имя файла C:\Sergei\новая папка\03 - ТАЙГА.wav
Пиковый уровень 98.8 %
Качество трека 100.0 %
CRC теста 74939B67
CRC копии 74939B67
Копирование... OK
Трек 4
Имя файла C:\Sergei\новая папка\04 - БЕЛАЯ ПТИЦА.wav
Пиковый уровень 98.8 %
Качество трека 100.0 %
CRC теста AFC2AD0F
CRC копии AFC2AD0F
Копирование... OK
Трек 5
Имя файла C:\Sergei\новая папка\05 - РАДУГА.wav
Пиковый уровень 98.8 %
Качество трека 100.0 %
CRC теста 028D8952
CRC копии 028D8952
Копирование... OK
Трек 6
Имя файла C:\Sergei\новая папка\06 - КОСОЛАПАЯ ЛЮБОВЬ.wav
Пиковый уровень 98.8 %
Качество трека 99.9 %
CRC теста 563DC911
CRC копии 563DC911
Копирование... OK
Трек 7
Имя файла C:\Sergei\новая папка\07 - ЖАЛЬ.wav
Пиковый уровень 98.8 %
Качество трека 100.0 %
CRC теста F8650637
CRC копии F8650637
Копирование... OK
Трек 8
Имя файла C:\Sergei\новая папка\08 - ЗОЛОТАЯ РЫБКА.wav
Пиковый уровень 98.8 %
Качество трека 100.0 %
CRC теста DB2A1130
CRC копии DB2A1130
Копирование... OK
Трек 9
Имя файла C:\Sergei\новая папка\09 - ЯГОДА.wav
Пиковый уровень 98.8 %
Качество трека 99.9 %
CRC теста 0FE6BBA6
CRC копии 0FE6BBA6
Копирование... OK
Трек 10
Имя файла C:\Sergei\новая папка\10 - ТОПОЛЯ.wav
Пиковый уровень 98.8 %
Качество трека 100.0 %
CRC теста D63FF977
CRC копии D63FF977
Копирование... OK
Трек 11
Имя файла C:\Sergei\новая папка\11 - ПАШКА.wav
Пиковый уровень 98.8 %
Качество трека 100.0 %
CRC теста BEDF169F
CRC копии BEDF169F
Копирование... OK
Трек 12
Имя файла C:\Sergei\новая папка\12 - СОЛОМОН.wav
Пиковый уровень 98.8 %
Качество трека 100.0 %
CRC теста 6C5A2542
CRC копии 6C5A2542
Копирование... OK
Трек 13
Имя файла C:\Sergei\новая папка\13 - ЖЕЛАЮ.wav
Пиковый уровень 98.8 %
Качество трека 100.0 %
CRC теста B692517D
CRC копии B692517D
Копирование... OK
Трек 14
Имя файла C:\Sergei\новая папка\14 - 'ШОПЕН'.wav
Пиковый уровень 98.8 %
Качество трека 100.0 %
CRC теста E02A64E5
CRC копии E02A64E5
Копирование... OK
Ошибок не произошло
Конец отчёта
"Non-compilant CUE"
REM GENRE Chanson
REM DATE 2005
REM DISCID E50B9C0E
REM COMMENT "ExactAudioCopy v0.95b3"
PERFORMER "Елена Ваенга"
TITLE "БЕЛАЯ ПТИЦА"
FILE "01 - АЭРОПОРТ.wav" WAVE
TRACK 01 AUDIO
TITLE "АЭРОПОРТ"
PERFORMER "Елена Ваенга"
INDEX 01 00:00:00
FILE "02 - ГОВОРИ, ГОВОРИ....wav" WAVE
TRACK 02 AUDIO
TITLE "ГОВОРИ, ГОВОРИ..."
PERFORMER "Елена Ваенга"
INDEX 01 00:00:00
FILE "03 - ТАЙГА.wav" WAVE
TRACK 03 AUDIO
TITLE "ТАЙГА"
PERFORMER "Елена Ваенга"
INDEX 01 00:00:00
FILE "04 - БЕЛАЯ ПТИЦА.wav" WAVE
TRACK 04 AUDIO
TITLE "БЕЛАЯ ПТИЦА"
PERFORMER "Елена Ваенга"
INDEX 01 00:00:00
FILE "05 - РАДУГА.wav" WAVE
TRACK 05 AUDIO
TITLE "РАДУГА"
PERFORMER "Елена Ваенга"
INDEX 01 00:00:00
FILE "06 - КОСОЛАПАЯ ЛЮБОВЬ.wav" WAVE
TRACK 06 AUDIO
TITLE "КОСОЛАПАЯ ЛЮБОВЬ"
PERFORMER "Елена Ваенга"
INDEX 01 00:00:00
FILE "07 - ЖАЛЬ.wav" WAVE
TRACK 07 AUDIO
TITLE "ЖАЛЬ"
PERFORMER "Елена Ваенга"
INDEX 01 00:00:00
FILE "08 - ЗОЛОТАЯ РЫБКА.wav" WAVE
TRACK 08 AUDIO
TITLE "ЗОЛОТАЯ РЫБКА"
PERFORMER "Елена Ваенга"
INDEX 01 00:00:00
FILE "09 - ЯГОДА.wav" WAVE
TRACK 09 AUDIO
TITLE "ЯГОДА"
PERFORMER "Елена Ваенга"
INDEX 01 00:00:00
FILE "10 - ТОПОЛЯ.wav" WAVE
TRACK 10 AUDIO
TITLE "ТОПОЛЯ"
PERFORMER "Елена Ваенга"
INDEX 01 00:00:00
FILE "11 - ПАШКА.wav" WAVE
TRACK 11 AUDIO
TITLE "ПАШКА"
PERFORMER "Елена Ваенга"
INDEX 01 00:00:00
FILE "12 - СОЛОМОН.wav" WAVE
TRACK 12 AUDIO
TITLE "СОЛОМОН"
PERFORMER "Елена Ваенга"
INDEX 01 00:00:00
FILE "13 - ЖЕЛАЮ.wav" WAVE
TRACK 13 AUDIO
TITLE "ЖЕЛАЮ"
PERFORMER "Елена Ваенга"
INDEX 01 00:00:00
FILE "14 - 'ШОПЕН'.wav" WAVE
TRACK 14 AUDIO
TITLE "'ШОПЕН'"
PERFORMER "Елена Ваенга"
INDEX 01 00:00:00
"Лог Audiochecker"
AUDIOCHECKER v2.0 beta (build 457) - by Dester - [email protected]
~~~~~~~~~~~~~~~~~~~~~~~~~~~~~~~~~~
-=== НЕ РЕДАКТИРУЙТЕ ЭТОТ ФАЙЛ! ===-
Путь: ...\Елена Ваенга - Белая птица (pirat.ca)
01 -=- 01 - АЭРОПОРТ.flac -=- CDDA (100%)
02 -=- 02 - ГОВОРИ, ГОВОРИ....flac -=- CDDA (100%)
03 -=- 03 - ТАЙГА.flac -=- CDDA (99%)
04 -=- 04 - БЕЛАЯ ПТИЦА.flac -=- CDDA (100%)
05 -=- 05 - РАДУГА.flac -=- CDDA (100%)
06 -=- 06 - КОСОЛАПАЯ ЛЮБОВЬ.flac -=- CDDA (100%)
07 -=- 07 - ЖАЛЬ.flac -=- CDDA (100%)
08 -=- 08 - ЗОЛОТАЯ РЫБКА.flac -=- CDDA (100%)
09 -=- 09 - ЯГОДА.flac -=- CDDA (100%)
10 -=- 10 - ТОПОЛЯ.flac -=- CDDA (100%)
11 -=- 11 - ПАШКА.flac -=- CDDA (100%)
12 -=- 12 - СОЛОМОН.flac -=- CDDA (100%)
13 -=- 13 - ЖЕЛАЮ.flac -=- CDDA (100%)
14 -=- 14 - 'ШОПЕН'.flac -=- CDDA (100%)
Сводка 99,93% CDDA
234723636
Мы помогаем людям, чтобы они, в свою очередь, помогли нам; таким образом, наши услуги сводятся просто к благодеяниям, которые мы загодя оказываем самим себе. (Франсуа де Ларошфуко)
Download / Скачать

Хотите скачать бесплатно? Зарегистрируйтесь на сайте (ссылка на регистрацию). Pirat.ca - самый быстрый торрент трекер в рунете!

Как скачивать  ·   Что такое торрент  ·   Рейтинг и ограничения

Voldemartop

Легенда

1574

Пост 22-Янв-2015 03:28 (спустя 1 год 11 месяцев)

[Q] 

Благо Дарю CHARLI2236!!!
Автору респект!!! +

_________________


МОИ РАЗДАЧИ
[Профиль]  [ЛС] 
Показать сообщения:    
Ответить на тему

Текущее время: Сегодня 21:49

Часовой пояс: GMT + 4



Вы не можете начинать темы
Вы не можете отвечать на сообщения
Вы не можете редактировать свои сообщения
Вы не можете удалять свои сообщения
Вы не можете голосовать в опросах
Вы не можете прикреплять файлы к сообщениям
Вы не можете скачивать файлы

▼ Вниз