Уважаемый Гость!
Вы можете поддержать проект и зарегистрироваться у наших партнеров - онлайн-стратегия MyLands. При регистрации в игре Вы получите код, который сможете активировать после регистрации на pirat.ca и получить 1000 дублонов.

Ваш код:
ed90efcf2ad4735c31dff44567b82e9136b702ef
 
     

(Chanson) Елена Ваенга - Клавиши - 2009 (1 CD) [FLAC, tracks+cue, lossless]

Ответить на тему
 
Автор
Сообщение

Пост 07-Фев-2013 23:53

[Q] 

CHARLI2236

f Елена Ваенга - Клавиши - 2009 (1 CD)
Год выпуска альбома: 2009
Страна: Россия
Жанр: Chanson
Лейбл издания: Квадро-Паблишинг
Продолжительность: 0:47:06
Формат: FLAC
Битрейт аудио: lossless
Тип рипа: tracks+.cue
Источник (релизер): диск CDDA
Наличие сканов в содержимом раздачи: да
Трэклист
01 - НЕ ЛЮБИЛ. (4:18)
02 - КЛАВИШИ. (3:51)
03 - КУРЮ. (5:11)
04 - МОСТЫ. (3:50)
05 - ВНУТРИ. (4:22)
06 - ГУЦУЛОЧКА. (3:10)
07 - НЕФОРМАТ. (3:13)
08 - ПЕРОН. (3:30)
09 - ЛАПКИ. (3:31)
10 - ВАНЕЧКА. (3:33)
11 - ОКЕАНЫ. (4:15)
12 - НЕ ЗАБЫВАЙ. (4:16)
”Отчет ЕАС”
Отчёт EAC об извлечении, выполненном 7. февраля 2013, 14:49 для диска:
Елена Ваенга / КЛАВИШИ
Дисковод: _NEC DVD_RW ND-4550A Adapter: 0 ID: 1
Режим чтения: Достоверный (C2: нет, Точный поток: да, Отключение кэша: да)
Коррекция смещения при чтении: 48
Способность читать области Lead-in и Lead-out : Нет
Выходной формат: C:\Program Files\FLAC\flac.exe (Пользовательский кодировщик)
128 kBit/s
Дополнительные параметры: -8 -V -T "ARTIST=%a" -T "TITLE=%t" -T "ALBUM=%g" -T "DATE=%y" -T "TRACKNUMBER=%n" -T "GENRE=%m" -T "COMMENT=EAC FLAC -8" %s
Другие параметры:
Заполнение пропущенных сэмплов тишиной : Да
Удаление блоков с тишиной в начале и конце : Нет
Встроенный Win32-интерфейс для Win NT/2000
Трек 1
Имя файла C:\Sergei\новая папка\01 - НЕ ЛЮБИЛ.wav
Длина предзазора 0:00:02.00
Пиковый уровень 94.1 %
Качество трека 100.0 %
CRC теста 8B2894C1
CRC копии 8B2894C1
Копирование... OK
Трек 2
Имя файла C:\Sergei\новая папка\02 - КЛАВИШИ.wav
Длина предзазора 0:00:02.00
Пиковый уровень 95.2 %
Качество трека 100.0 %
CRC теста AED9FFE4
CRC копии AED9FFE4
Копирование... OK
Трек 3
Имя файла C:\Sergei\новая папка\03 - КУРЮ.wav
Длина предзазора 0:00:02.00
Пиковый уровень 92.0 %
Качество трека 100.0 %
CRC теста FCA6EBEA
CRC копии FCA6EBEA
Копирование... OK
Трек 4
Имя файла C:\Sergei\новая папка\04 - МОСТЫ.wav
Длина предзазора 0:00:02.00
Пиковый уровень 93.0 %
Качество трека 100.0 %
CRC теста D8B390C6
CRC копии D8B390C6
Копирование... OK
Трек 5
Имя файла C:\Sergei\новая папка\05 - ВНУТРИ.wav
Длина предзазора 0:00:02.00
Пиковый уровень 79.7 %
Качество трека 100.0 %
CRC теста 7CEB5525
CRC копии 7CEB5525
Копирование... OK
Трек 6
Имя файла C:\Sergei\новая папка\06 - ГУЦУЛОЧКА.wav
Длина предзазора 0:00:02.00
Пиковый уровень 97.2 %
Качество трека 100.0 %
CRC теста 83E5FF3D
CRC копии 83E5FF3D
Копирование... OK
Трек 7
Имя файла C:\Sergei\новая папка\07 - НЕФОРМАТ.wav
Длина предзазора 0:00:02.00
Пиковый уровень 97.7 %
Качество трека 99.9 %
CRC теста CDA9A6DE
CRC копии CDA9A6DE
Копирование... OK
Трек 8
Имя файла C:\Sergei\новая папка\08 - ПЕРОН.wav
Длина предзазора 0:00:02.00
Пиковый уровень 97.7 %
Качество трека 100.0 %
CRC теста D9AA17DB
CRC копии D9AA17DB
Копирование... OK
Трек 9
Имя файла C:\Sergei\новая папка\09 - ЛАПКИ.wav
Длина предзазора 0:00:02.00
Пиковый уровень 97.7 %
Качество трека 100.0 %
CRC теста EFC9267E
CRC копии EFC9267E
Копирование... OK
Трек 10
Имя файла C:\Sergei\новая папка\10 - ВАНЕЧКА.wav
Длина предзазора 0:00:02.00
Пиковый уровень 96.6 %
Качество трека 100.0 %
CRC теста C1B39F0C
CRC копии C1B39F0C
Копирование... OK
Трек 11
Имя файла C:\Sergei\новая папка\11 - ОКЕАНЫ.wav
Длина предзазора 0:00:02.00
Пиковый уровень 96.6 %
Качество трека 100.0 %
CRC теста 50DD0E45
CRC копии 50DD0E45
Копирование... OK
Трек 12
Имя файла C:\Sergei\новая папка\12 - НЕ ЗАБЫВАЙ.wav
Длина предзазора 0:00:02.00
Пиковый уровень 97.7 %
Качество трека 100.0 %
CRC теста 08C1FEB9
CRC копии 08C1FEB9
Копирование... OK
Ошибок не произошло
Конец отчёта
"Non-compilant CUE"
REM GENRE Chanson
REM DATE 2009
REM DISCID 930B0A0C
REM COMMENT "ExactAudioCopy v0.95b3"
PERFORMER "Елена Ваенга"
TITLE "КЛАВИШИ"
FILE "01 - НЕ ЛЮБИЛ.wav" WAVE
TRACK 01 AUDIO
TITLE "НЕ ЛЮБИЛ"
PERFORMER "Елена Ваенга"
INDEX 01 00:00:00
TRACK 02 AUDIO
TITLE "КЛАВИШИ"
PERFORMER "Елена Ваенга"
INDEX 00 04:16:37
FILE "02 - КЛАВИШИ.wav" WAVE
INDEX 01 00:00:00
TRACK 03 AUDIO
TITLE "КУРЮ"
PERFORMER "Елена Ваенга"
INDEX 00 03:49:21
FILE "03 - КУРЮ.wav" WAVE
INDEX 01 00:00:00
TRACK 04 AUDIO
TITLE "МОСТЫ"
PERFORMER "Елена Ваенга"
INDEX 00 05:09:70
FILE "04 - МОСТЫ.wav" WAVE
INDEX 01 00:00:00
TRACK 05 AUDIO
TITLE "ВНУТРИ"
PERFORMER "Елена Ваенга"
INDEX 00 03:48:21
FILE "05 - ВНУТРИ.wav" WAVE
INDEX 01 00:00:00
TRACK 06 AUDIO
TITLE "ГУЦУЛОЧКА"
PERFORMER "Елена Ваенга"
INDEX 00 04:20:11
FILE "06 - ГУЦУЛОЧКА.wav" WAVE
INDEX 01 00:00:00
TRACK 07 AUDIO
TITLE "НЕФОРМАТ"
PERFORMER "Елена Ваенга"
INDEX 00 03:08:74
FILE "07 - НЕФОРМАТ.wav" WAVE
INDEX 01 00:00:00
TRACK 08 AUDIO
TITLE "ПЕРОН"
PERFORMER "Елена Ваенга"
INDEX 00 03:11:42
FILE "08 - ПЕРОН.wav" WAVE
INDEX 01 00:00:00
TRACK 09 AUDIO
TITLE "ЛАПКИ"
PERFORMER "Елена Ваенга"
INDEX 00 03:28:48
FILE "09 - ЛАПКИ.wav" WAVE
INDEX 01 00:00:00
TRACK 10 AUDIO
TITLE "ВАНЕЧКА"
PERFORMER "Елена Ваенга"
INDEX 00 03:29:72
FILE "10 - ВАНЕЧКА.wav" WAVE
INDEX 01 00:00:00
TRACK 11 AUDIO
TITLE "ОКЕАНЫ"
PERFORMER "Елена Ваенга"
INDEX 00 03:31:03
FILE "11 - ОКЕАНЫ.wav" WAVE
INDEX 01 00:00:00
TRACK 12 AUDIO
TITLE "НЕ ЗАБЫВАЙ"
PERFORMER "Елена Ваенга"
INDEX 00 04:13:37
FILE "12 - НЕ ЗАБЫВАЙ.wav" WAVE
INDEX 01 00:00:00
"Лог Audiochecker"
AUDIOCHECKER v2.0 beta (build 457) - by Dester - [email protected]
~~~~~~~~~~~~~~~~~~~~~~~~~~~~~~~~~~
-=== НЕ РЕДАКТИРУЙТЕ ЭТОТ ФАЙЛ! ===-
Путь: ...\Елена Ваенга - Клавиши (pirat.ca)
01 -=- 01 - НЕ ЛЮБИЛ.flac -=- CDDA (100%)
02 -=- 02 - КЛАВИШИ.flac -=- CDDA (100%)
03 -=- 03 - КУРЮ.flac -=- CDDA (100%)
04 -=- 04 - МОСТЫ.flac -=- CDDA (99%)
05 -=- 05 - ВНУТРИ.flac -=- CDDA (100%)
06 -=- 06 - ГУЦУЛОЧКА.flac -=- CDDA (100%)
07 -=- 07 - НЕФОРМАТ.flac -=- CDDA (100%)
08 -=- 08 - ПЕРОН.flac -=- CDDA (100%)
09 -=- 09 - ЛАПКИ.flac -=- CDDA (100%)
10 -=- 10 - ВАНЕЧКА.flac -=- CDDA (100%)
11 -=- 11 - ОКЕАНЫ.flac -=- CDDA (100%)
12 -=- 12 - НЕ ЗАБЫВАЙ.flac -=- CDDA (100%)
Сводка 99,92% CDDA
266636628
Мы помогаем людям, чтобы они, в свою очередь, помогли нам; таким образом, наши услуги сводятся просто к благодеяниям, которые мы загодя оказываем самим себе. (Франсуа де Ларошфуко)
Download / Скачать

Хотите скачать бесплатно? Зарегистрируйтесь на сайте (ссылка на регистрацию). Pirat.ca - самый быстрый торрент трекер в рунете!

Как скачивать  ·   Что такое торрент  ·   Рейтинг и ограничения

Voldemartop

Легенда

1573

Пост 22-Янв-2015 03:29 (спустя 1 год 11 месяцев)

[Q] 

Благо Дарю CHARLI2236!!!
Забираю.
Автору респект!!! +

_________________


МОИ РАЗДАЧИ
[Профиль]  [ЛС] 
Показать сообщения:    
Ответить на тему

Текущее время: Сегодня 16:04

Часовой пояс: GMT + 4



Вы не можете начинать темы
Вы не можете отвечать на сообщения
Вы не можете редактировать свои сообщения
Вы не можете удалять свои сообщения
Вы не можете голосовать в опросах
Вы не можете прикреплять файлы к сообщениям
Вы не можете скачивать файлы

▼ Вниз