Уважаемый Гость!
Вы можете поддержать проект и зарегистрироваться у наших партнеров - онлайн-стратегия MyLands. При регистрации в игре Вы получите код, который сможете активировать после регистрации на pirat.ca и получить 1000 дублонов.

Ваш код:
cbfc972db866f9f3df6a6fea4c2549cc4e2f5835
 
     

Крик 4 / Scream 4 (Уэс Крэйвен / Wes Craven) [2011 г., Триллер, криминал, детектив, ужасы, BDRip, 1080p] AVO ( А.Гаврилов, Ю.Немахов ) + original (Eng)

Ответить на тему
 
Автор
Сообщение

Пост 09-Июн-2013 08:38

[Q] 

Consul

- Крик 4 / Scream 4 Год выпуска: 2011
Производство: США
Жанр: Триллер, криминал, детектив, ужасы
Продолжительность: 01:50:47
Перевод: Авторский (одноголосый) А.Гаврилов, Ю.Немахов
Оригинальный аудиопоток: английский
Субтитры: отсутствуют
Режиссер: Уэс Крэйвен / Wes Craven
В ролях:
Нив Кэмпбелл / Neve Campbell, Дэвид Аркетт / David Arquette, Кортни Кокс / Courteney Cox, Эмма Робертс / Emma Roberts, Рори Калкин / Rory Culkin, Хайден Панеттьери / Hayden Panettiere, Эрик Кнудсен / Erik Knudsen, Адам Броди / Adam Brody, Мэри МакДоннелл / Mary McDonnell, Энтони Андерсон / Anthony Anderson ...
Описание:
Сидни Прескотт последние несколько лет провела в относительной тишине и покое. Жизнь потихоньку налаживается, вдали от вспышек и видеокамер папарацци. Но когда находят труп одного из студентов, мир Сидни Прескотт вновь начинает рушиться. Всему виной возродившийся убийца в маске «Лицо Призрака».
Качество видео: BDRip
Контейнер: MKV
Стандарт разрешения: 1080p
Видео кодек: H.264
Аудио кодек: DTS
Видео: [email protected] / 1920x800 / ~12,5 Мbps / 23.976 fps
Аудио #1: DTS / 5.1 / 48 kHz / 1510 kbps / 16-bit ( А.Гаврилов )
Аудио #2: DTS / 5.1 / 48 kHz / 1510 kbps / 16-bit ( Ю.Немахов )
Аудио #3: DTS / 5.1 / 48 kHz / 1510 kbps / 16-bit ( оригинал )
В школьном кино-клубе висят постеры таких фильмов, как «У холмов есть глаза», «Хэллоуин 2», «Зелёная миля», «Нечто», «Головокружение», «Бразилия», а также постер вымышленного ужастика «Удар ножом».
Первоначально съемки должны были начаться в марте 2010 года, но из-за некоторых трудностей они были перенесены на 28 июля того же года.
Съёмки фильма прошли в окрестностях города Энн Эрбор, штат Мичиган.
В сценах флэшбэков в школе Вудсборо для съёмок используют здание Woodworth Middle School, находящейся в городе Дэрборн, штат Мичиган.
Актриса Лэйк Белл, предположительно собиравшаяся исполнить роль шерифа Джуди Хикс — бывшей одноклассницы Сидни — выбыла из проекта из-за напряжённого съёмочного графика.
Видео
Идентификатор : 1
Формат : AVC
Формат/Информация : Advanced Video Codec
Профиль формата : [email protected]
Параметр CABAC формата : Да
Параметр ReFrames формата : 5 кадров
Режим смешивания : Header stripping
Идентификатор кодека : V_MPEG4/ISO/AVC
Продолжительность : 1 ч. 50 м.
Битрейт : 12,5 Мбит/сек
Ширина : 1920 пикселей
Высота : 800 пикселей
Соотношение сторон : 2,40:1
Частота кадров : 23,976 кадра/сек
Цветовое пространство : YUV
Субдискретизация насыщенности : 4:2:0
Битовая глубина : 8 бит
Тип развёртки : Прогрессивная
Бит/(Пиксели*Кадры) : 0.340
Размер потока : 9,41 Гбайт (71%)
Заголовок : Scream 4.2011.BDRip.1080p.2xAVO.by Consul.(C)
Библиотека кодирования : x264 core 130 r2273 b3065e6
Настройки программы : cabac=1 / ref=5 / deblock=1:-3:-3 / analyse=0x3:0x133 / me=umh / subme=11 / psy=1 / psy_rd=1.00:0.10 / mixed_ref=1 / me_range=32 / chroma_me=1 / trellis=2 / 8x8dct=1 / cqm=0 / deadzone=21,11 / fast_pskip=1 / chroma_qp_offset=-5 / threads=4 / lookahead_threads=6 / sliced_threads=0 / nr=0 / decimate=1 / interlaced=0 / bluray_compat=0 / constrained_intra=0 / bframes=6 / b_pyramid=2 / b_adapt=1 / b_bias=0 / direct=3 / weightb=1 / open_gop=0 / weightp=2 / keyint=250 / keyint_min=23 / scenecut=40 / intra_refresh=0 / rc_lookahead=40 / rc=2pass / mbtree=1 / bitrate=12510 / ratetol=1.0 / qcomp=0.60 / qpmin=0 / qpmax=69 / qpstep=4 / cplxblur=20.0 / qblur=0.5 / ip_ratio=1.40 / aq=2:1.00
Язык : English
Default : Да
Forced : Нет
Аудио #1
Идентификатор : 2
Формат : DTS
Формат/Информация : Digital Theater Systems
Режим смешивания : Header stripping
Идентификатор кодека : A_DTS
Продолжительность : 1 ч. 50 м.
Вид битрейта : Постоянный
Битрейт : 1510 Кбит/сек
Каналы : 6 каналов
Расположение каналов : Front: L C R, Side: L R, LFE
Частота : 48,0 КГц
Битовая глубина : 16 бит
Метод сжатия : С потерями
Размер потока : 1,17 Гбайт (9%)
Заголовок : AVO ( A.Гаврилов )
Язык : Russian
Default : Да
Forced : Нет
Аудио #2
Идентификатор : 3
Формат : DTS
Формат/Информация : Digital Theater Systems
Режим смешивания : Header stripping
Идентификатор кодека : A_DTS
Продолжительность : 1 ч. 50 м.
Вид битрейта : Постоянный
Битрейт : 1510 Кбит/сек
Каналы : 6 каналов
Расположение каналов : Front: L C R, Side: L R, LFE
Частота : 48,0 КГц
Битовая глубина : 16 бит
Метод сжатия : С потерями
Размер потока : 1,17 Гбайт (9%)
Заголовок : AVO ( Ю.Немахов )
Язык : Russian
Default : Нет
Forced : Нет
Аудио #3
Идентификатор : 4
Формат : DTS
Формат/Информация : Digital Theater Systems
Режим смешивания : Header stripping
Идентификатор кодека : A_DTS
Продолжительность : 1 ч. 50 м.
Вид битрейта : Постоянный
Битрейт : 1510 Кбит/сек
Каналы : 6 каналов
Расположение каналов : Front: L C R, Side: L R, LFE
Частота : 48,0 КГц
Битовая глубина : 16 бит
Метод сжатия : С потерями
Размер потока : 1,17 Гбайт (9%)
Заголовок : Оригинал
Язык : English
Default : Нет
Forced : Нет
Меню
00:00:00.000 : en:00:00:00.000
00:05:00.000 : en:00:05:00.000
00:10:00.000 : en:00:10:00.000
00:15:00.000 : en:00:15:00.000
00:20:00.000 : en:00:20:00.000
00:25:00.000 : en:00:25:00.000
00:30:00.000 : en:00:30:00.000
00:35:00.000 : en:00:35:00.000
00:40:00.000 : en:00:40:00.000
00:45:00.000 : en:00:45:00.000
00:50:00.000 : en:00:50:00.000
00:55:00.000 : en:00:55:00.000
01:00:00.000 : en:01:00:00.000
01:05:00.000 : en:01:05:00.000
01:10:00.000 : en:01:10:00.000
01:15:00.000 : en:01:15:00.000
01:20:00.000 : en:01:20:00.000
01:25:00.000 : en:01:25:00.000
01:30:00.000 : en:01:30:00.000
01:35:00.000 : en:01:35:00.000
01:40:00.000 : en:01:40:00.000
01:43:33.000 : en:01:43:33.000
За Remux с дорогой А.Гаврилова спасибо Kampfer161
Источник дороги Ю.Немахова - Remux от sergey_n. За работу над ними большое спасибо pyha
За выкуп Перевод Ю.Немахова на Scream 4 большое спасибо ZombX, denus, Yanmax, suzaku, carnivale, Ace34, Bilko, Tio, zaq-qaz (e180.ru).
- - -
Download / Скачать

Хотите скачать бесплатно? Зарегистрируйтесь на сайте (ссылка на регистрацию). Pirat.ca - самый быстрый торрент трекер в рунете!

Как скачивать  ·   Что такое торрент  ·   Рейтинг и ограничения

beerlover1980alex

Лоцман

Пост 09-Июн-2013 09:08 (спустя 29 минут)

[Q] 

а обычный BDrip будет?не MKV,а avi.
[Профиль]  [ЛС] 

Consul ®

13136

Пост 09-Июн-2013 10:27 (спустя 1 час 19 минут)

[Q] 

beerlover1980alex
На все 4 части рипы сделаны. Будут выложены позже. Не сегодня, это точно.

_________________
Не говорите мне что делать, и я не скажу куда вам пойти.

Нет раздающих-напишите ЛС скачавшим. Проблемы со скоростью-ваши проблемы.
[Профиль]  [ЛС] 

saenwert

Гроза морей

Пост 09-Июн-2013 14:48 (спустя 4 часа)

[Q] 

Consul, будем ждать с нетерпением!!! cx
[Профиль]  [ЛС] 

Кэп 2

Шкипер

Пост 04-Мар-2014 16:25 (спустя 8 месяцев 25 дней)

[Q] 

спасибо за релиз.
можете раздать ?

_________________
хоррорвидеохит
[Профиль]  [ЛС] 

sharkey

Лоцман

Пост 06-Сен-2017 02:25 (спустя 3 года 6 месяцев)

[Q] 

Dobrogo vremeni sutok! Vozmozhna razdacha dannogo reliza? Zaranee spasibo.
[Профиль]  [ЛС] 
Показать сообщения:    
Ответить на тему

Текущее время: Сегодня 08:00

Часовой пояс: GMT + 4



Вы не можете начинать темы
Вы не можете отвечать на сообщения
Вы не можете редактировать свои сообщения
Вы не можете удалять свои сообщения
Вы не можете голосовать в опросах
Вы не можете прикреплять файлы к сообщениям
Вы не можете скачивать файлы

▼ Вниз