[HD] Легенда №17 / Легенда №17 [2013 г., спорт, BDRip]

Ответить на тему
 
Автор
Сообщение

Пост 29-Июн-2013 12:54

[Q] 

Mitay

-Легенда №17 / Легенда №17-- Год выпуска: 2013 г.
Жанр: Спорт
Системные требования : iOS 5.0 и выше
Совместимые устройства: iPad
Поддерживаемые разрешения: 1024x428
Язык интерфейса: русский
Продолжительность: 02:13:53
Страна: Россия
В ролях: Данила Козловский, Олег Меньшиков, Владимир Меньшов, Борис Щербаков, Роман Мадянов, Светлана Иванова, Алехандра Грепи, Александр Рагулин
Формат файлов: m4v
Описание: 2 сентября 1972 года. Монреаль. Хоккейная сборная СССР с разгромным счетом 7:3 победила канадских профессионалов из НХЛ в стартовом матче эпохальной Суперсерии СССР-Канада. Это была не просто игра, это была битва за свою страну, которая перевернула мировое представление о хоккее.
Источник/Качество: BDRip
Видео кодек: H.264
Аудио кодек: AAC
Видео: 1024 x 428 (2.40:1) at 24.000 fps, H.264/AVC at 4000 kbps avg, 0.380 bit/pixel
Аудио: 48.0 kHz, AAC (LC), 2 ch (Front: L R), 192 kbps avg-
Релиз подготовлен специально для просмотра на Apple TV и iPad.
Общее
Полное имя : Legend17.BDRip.iPad.m4v
Формат : MPEG-4
Идентификатор кодека : M4V
Размер файла : 3,93 Гбайт
Продолжительность : 2 ч. 13 м.
Общий поток : 4200 Кбит/сек
Название фильма : Легенда №17
Исполнитель : Nikolay Lebedev
Жанр : Sport & Drama
Дата записи : UTC 2013-04-17 08:00:00
Дата кодирования : UTC 2013-05-26 12:32:31
Дата пометки : UTC 2013-05-26 13:58:40
Правообладатель : © Канал Россия, Студия Тритэ
Обложка : Yes
Примечание : Легенда №17
sonm : Легенда №17
desc : 2 сентября 1972 года. Монреаль. Хоккейная сборная СССР с разгромным счетом 7:3 победила канадских профессионалов из НХЛ в стартовом матче эпохальной Суперсерии СССР-Канада. Это была не просто игра, это была битва за свою страну.
ldes : 2 сентября 1972 года. Монреаль. Хоккейная сборная СССР с разгромным счетом 7:3 победила канадских профессионалов из НХЛ в стартовом матче эпохальной Суперсерии СССР-Канада. Это была не просто игра, это была битва за свою страну, которая перевернула мировое представление о хоккее.
stik : 9
rtng : 0
akID : -1
cnID : 601564
xid : Apple:vendor_id:2013-601564
iTunEXTC : ab 6 Jahren
iTunMOVI : <?xml version="1.0" encoding="UTF-8"?> / <!DOCTYPE plist PUBLIC "-//Apple//DTD PLIST 1.0//EN" "http://www.apple.com/DTDs/PropertyList-1.0.dtd"> / <plist version="1.0"> / <dict> / <key>cast</key> / <array> / <dict> / <key>name</key> / <string>Данила Козловский</string> / </dict> / <dict> / <key>name</key> / <string>Олег Меньшиков</string> / </dict> / <dict> / <key>name</key> / <string>Светлана Иванова</string> / </dict> / <dict> / <key>name</key> / <string>Владимир Меньшов</string> / </dict> / <dict> / <key>name</key> / <string>Александр Лобанов</string> / </dict> / <dict> / <key>name</key> / <string>Сергей Генкин</string> / </dict> / <dict> / <key>name</key> / <string>Роман Мадянов</string> / </dict> / <dict> / <key>name</key> / <string>Александр Яковлев</string> / </dict> / <dict> / <key>name</key> / <string>Алехандра Грепи</string> / </dict> / <dict> / <key>name</key> / <string>Борис Щербаков</string> / </dict> / </array> / <key>directors</key> / <array> / <dict> / <key>name</key> / <string>Николай Лебедев</string> / </dict> / </array> / <key>producers</key> / <array> / <dict> / <key>name</key> / <string>Леонид Верещагин</string> / </dict> / <dict> / <key>name</key> / <string>Антон Златопольский</string> / </dict> / <dict> / <key>name</key> / <string>Никита Михалко</string> / </dict> / </array> / <key>screenwriters</key> / <array> / <dict> / <key>name</key> / <string>Михаил Местецкий</string> / </dict> / <dict> / <key>name</key> / <string>Николай Куликов</string> / </dict> / <dict> / <key>name</key> / <string>Николай Лебедев</string> / </dict> / </array> / <key>studio</key> / <string>© Канал Россия, Студия Тритэ </string> / </dict> / </plist>
Видео #1
Идентификатор : 1
Формат : AVC
Формат/Информация : Advanced Video Codec
Профиль формата : [email protected]
Параметр CABAC формата : Да
Параметр ReFrames формата : 12 кадры
Идентификатор кодека : avc1
Идентификатор кодека/Информация : Advanced Video Coding
Продолжительность : 2 ч. 13 м.
Вид битрейта : Переменный
Битрейт : 4000 Кбит/сек
Максимальный битрейт : 16,0 Мбит/сек
Ширина : 1024 пикс.
Высота : 428 пикс.
Соотношение сторон : 2,35:1
Режим частоты кадров : Постоянный
Частота кадров : 24,000 кадр/сек
Цветовое пространство : YUV
Подвыборка цветности : 4:2:0
Битовая глубина : 8 бит
Тип развёртки : Прогрессивная
Бит/(Пиксели*Кадры) : 0.380
Размер потока : 3,74 Гбайт (95%)
Библиотека кодирования : x264 core 129 r2245+704+36 8e61944 tMod+MixAQ [[email protected] X86_64]
Настройки программы : cabac=1 / ref=12 / deblock=1:-3:-3 / analyse=0x3:0x113 / me=umh / subme=11 / psy=1 / fade_compensate=0.00 / psy_rd=1.00:0.15 / mixed_ref=1 / me_range=48 / chroma_me=1 / trellis=2 / 8x8dct=1 / cqm=0 / deadzone=21,11 / fast_pskip=0 / chroma_qp_offset=-3 / threads=18 / lookahead_threads=3 / sliced_threads=0 / nr=0 / decimate=0 / interlaced=0 / bluray_compat=0 / constrained_intra=0 / fgo=0 / bframes=14 / b_pyramid=2 / b_adapt=2 / b_bias=0 / direct=3 / weightb=1 / open_gop=0 / weightp=2 / keyint=250 / keyint_min=23 / scenecut=45 / intra_refresh=0 / rc_lookahead=180 / rc=2pass / mbtree=1 / bitrate=4000 / ratetol=1.0 / qcomp=0.70 / qpmin=0 / qpmax=69 / qpstep=4 / cplxblur=20.0 / qblur=0.5 / vbv_maxrate=62500 / vbv_bufsize=50000 / nal_hrd=none / ip_ratio=1.35 / aq=4 / aq-strength=0.90 / aq-sensitivity=10.00 / aq-ifactor=1.00 / aq-pfactor=1.00 / aq-bfactor=1.00 / aq2=0
Язык : Russian
Дата кодирования : UTC 2013-05-26 12:32:31
Дата пометки : UTC 2013-05-26 12:32:56
Коэффициенты матрицы : BT.709-5, BT.1361, IEC 61966-2-4 709, SMPTE RP177
Видео #2
Идентификатор : 4
Формат : JPEG
Идентификатор кодека : jpeg
Продолжительность : 2 ч. 13 м.
Вид битрейта : Переменный
Битрейт : 618 бит/сек
Ширина : 640 пикс.
Высота : 267 пикс.
Соотношение сторон : 2,35:1
Режим частоты кадров : Переменный
Частота кадров : 0,002 кадр/сек
Минимальная частота кадров : 0,001 кадр/сек
Максимальная частота кадров : 0,003 кадр/сек
Метод сжатия : С потерями
Бит/(Пиксели*Кадры) : 1.808
Размер потока : 604 Кбайт (0%)
Язык : Russian
Дата кодирования : UTC 2013-05-26 13:23:32
Дата пометки : UTC 2013-05-26 13:23:32
Аудио
Идентификатор : 2
Формат : AAC
Формат/Информация : Advanced Audio Codec
Профиль формата : LC
Идентификатор кодека : 40
Продолжительность : 2 ч. 13 м.
Вид битрейта : Переменный
Битрейт : 192 Кбит/сек
Максимальный битрейт : 250 Кбит/сек
Канал(ы) : 2 канала(ов)
Расположение каналов : Front: L R
Частота : 48,0 КГц
Метод сжатия : С потерями
Размер потока : 187 Мбайт (5%)
Заголовок : AAC Russian
Язык : Russian
Дата кодирования : UTC 2013-05-26 12:32:51
Дата пометки : UTC 2013-05-26 12:32:56
Текст
Идентификатор : 3
Формат : Apple text
Идентификатор кодека : text
Продолжительность : 2 ч. 13 м.
Вид битрейта : Постоянный
Битрейт : 0
Размер потока : 416 байт (0%)
Язык : Russian
Дата кодирования : UTC 2013-05-26 13:23:24
Дата пометки : UTC 2013-05-26 13:23:24
Меню
00:00:00.000 : 00:00:00.000
00:07:01.708 : 00:07:01.708
00:14:53.083 : 00:14:53.083
00:22:34.208 : 00:22:34.208
00:28:59.500 : 00:28:59.500
00:37:15.500 : 00:37:15.500
00:45:29.625 : 00:45:29.625
00:57:35.292 : 00:57:35.292
01:08:11.792 : 01:08:11.792
01:17:34.208 : 01:17:34.208
01:26:25.542 : 01:26:25.542
01:34:09.208 : 01:34:09.208
01:43:26.458 : 01:43:26.458
01:49:54.083 : 01:49:54.083
01:58:50.792 : 01:58:50.792
02:07:19.292 : 02:07:19.292
Download / Скачать

Хотите скачать бесплатно? Зарегистрируйтесь на сайте (ссылка на регистрацию). Pirat.ca - самый быстрый торрент трекер в рунете!

Как скачивать  ·   Что такое торрент  ·   Рейтинг и ограничения

Показать сообщения:    
Ответить на тему

Текущее время: Сегодня 09:18

Часовой пояс: GMT + 4



Вы не можете начинать темы
Вы не можете отвечать на сообщения
Вы не можете редактировать свои сообщения
Вы не можете удалять свои сообщения
Вы не можете голосовать в опросах
Вы не можете прикреплять файлы к сообщениям
Вы не можете скачивать файлы

Майнать ▼