Законопослушный гражданин [Расширенная версия] / Law Abiding Citizen [Unrated] (Ф. Гэри Грей) [2009, триллер, драма, криминал, BDRip, 960 x 400] (Dub)

Ответить на тему
 
Автор
Сообщение

Пост 02-Янв-2012 21:49

[Q] 

goxakrauter

Законопослушный гражданин [Расширенная версия]
Law Abiding Citizen [Unrated]
- Год выпуска: 2009
Страна: США
Жанр: триллер, драма, криминал
Продолжительность: 01:58:06
Перевод : Профессиональный (полное дублирование)
Русские субтитры (только на непереведённые фразы): есть-Режиссёр: Ф. Гэри Грей / F. Gary Gray
В ролях: Джейми Фокс, Джерард Батлер, Колм Мини, Брюс МакГилл, Лесли Бибб, Майкл Ирби, Грегори Итцин, Реджина Холл, Кристиан Столте-Описание: Добропорядочный житель Филадельфии Клайд Шелтон теряет семью в результате бандитского нападения. Но когда преступники оказались в руках правосудия, выяснилось, что юридической Системе удобнее пойти на сделку с одним из бандитов, чтобы дать высшую меру другому.
Помощник окружного прокурора Ник Райс идет на эту сделку, вопреки протестам возмущенного Шелтона, свято верящего в безукоризненность Закона. Но его права были попраны… И тогда спустя годы безвестный мститель начинает творить собственную расправу над убийцами. Ник Райс достаточно быстро находит его. Это… Клайд Шелтон. Райсу кажется, что ему нетрудно добиться признания от раздавленного семейной трагедией Клайда.
Каково же изумление всех работников Системы, когда они обнаруживают, что даже помещенный в тюрьму, этот человек способен на самую жестокую и изощренную месть. Более того, они оказались совершенно бессильны перед гениальной игрой и смертоносными ударами изолированного в одиночке Шелтона! Законопослушный гражданин начал беспощадную войну против всех них. И дело вовсе не в мести…-Качество: BDRip
Формат: *.mp4
Видео кодек: H.264
Аудио кодек: ААС
Разрешение: 960 x 400
Видео: MPEG4 Video (H264) 960x400 23.98fps
Аудио: AAC 48000Hz 6ch 157 Kbps
Вшитая обложка: есть
Доп. теги (режиссёр, актёры и т.д.): прописаны-
General
Complete name : M:\ipod\Law Abiding Citizen [Unrated].2009.D.BDRip.AVC.x264.JRG.mp4
Format : MPEG-4
Format profile : Base Media
Codec ID : isom
File size : 1.34 GiB
Duration : 1h 58mn
Overall bit rate : 1 623 Kbps
Movie name : Законопослушный гражданин [Расширенная версия] / Law Abiding Citizen
Performer : Ф. Гэри Грей / F. Gary Gray
Genre : Crime
Encoded date : 2009
Tagged date : UTC 2011-01-17 14:09:11
Cover : Yes
iTunEXTC : mpaa|R|400|
iTunMOVI : <?xml version="1.0" encoding="UTF-8"?> / <!DOCTYPE plist PUBLIC "-//Apple//DTD PLIST 1.0//EN" "http://www.apple.com/DTDs/PropertyList-1.0.dtd"> / <plist version="1.0"> / <dict> / <key>directors</key> / <array> / <dict> / <key>name</key> / <string>Ф. Гэри Грей</string> / </dict> / </array> / <key>producers</key> / <array> / <dict> / <key>name</key> / <string>Джерард Батлер</string> / </dict> / <dict> / <key>name</key> / <string>Ян Уотермейер</string> / </dict> / <dict> / <key>name</key> / <string>Джефф Дж. Ваксман</string> / </dict> / </array> / <key>screenwriters</key> / <array> / <dict> / <key>name</key> / <string>Курт Уиммер</string> / </dict> / </array> / </dict> / </plist>
ldes : Добропорядочный житель Филадельфии Клайд Шелтон теряет семью в результате бандитского нападения. Но когда преступники оказались в руках правосудия, выяснилось, что юридической Системе удобнее пойти на сделку с одним из бандитов, чтобы дать высшую меру другому. / Помощник окружного прокурора Ник Райс идет на эту сделку, вопреки протестам возмущенного Шелтона, свято верящего в безукоризненность Закона. Но его права были попраны… И тогда спустя годы безвестный мститель начинает творить собственную расправу над убийцами. Ник Райс достаточно быстро находит его. Это… Клайд Шелтон. Райсу кажется, что ему нетрудно добиться признания от раздавленного семейной трагедией Клайда. / Каково же изумление всех работников Системы, когда они обнаруживают, что даже помещенный в тюрьму, этот человек способен на самую жестокую и изощренную месть. Более того, они оказались совершенно бессильны перед гениальной игрой и смертоносными ударами изолированного в одиночке Шелтона! Законопослушный гражданин начал беспощадную войну против всех них. И дело вовсе не в мести…
hdvd : 1
stik : 9
Video
ID : 1
Format : AVC
Format/Info : Advanced Video Codec
Format profile : High@L3.1
Format settings, CABAC : Yes
Format settings, ReFrames : 2 frames
Codec ID : avc1
Codec ID/Info : Advanced Video Coding
Duration : 1h 58mn
Bit rate mode : Variable
Bit rate : 1 459 Kbps
Maximum bit rate : 8 662 Kbps
Width : 960 pixels
Height : 400 pixels
Display aspect ratio : 2.40:1
Frame rate mode : Constant
Frame rate : 23.976 fps
Color space : YUV
Chroma subsampling : 4:2:0
Bit depth : 8 bits
Scan type : Progressive
Bits/(Pixel*Frame) : 0.158
Stream size : 1.20 GiB (90%)
Title : Imported with GPAC 0.4.6-DEV (build 1)
Writing library : x264 core 92 r1510 33d382a
Encoding settings : cabac=1 / ref=2 / deblock=1:-2:-1 / analyse=0x3:0x111 / me=umh / subme=9 / psy=1 / psy_rd=1.00:0.80 / mixed_ref=1 / me_range=24 / chroma_me=1 / trellis=2 / 8x8dct=1 / cqm=0 / deadzone=21,11 / fast_pskip=1 / chroma_qp_offset=-4 / threads=12 / sliced_threads=0 / nr=0 / decimate=1 / interlaced=0 / constrained_intra=0 / bframes=3 / b_pyramid=0 / b_adapt=0 / b_bias=0 / direct=1 / wpredb=1 / wpredp=2 / keyint=250 / keyint_min=25 / scenecut=40 / intra_refresh=0 / rc_lookahead=40 / rc=crf / mbtree=1 / crf=20.0 / qcomp=0.60 / qpmin=10 / qpmax=51 / qpstep=4 / ip_ratio=1.40 / aq=1:1.00
Encoded date : UTC 2011-01-15 18:49:30
Tagged date : UTC 2011-01-15 18:50:05
Audio
ID : 2
Format : AAC
Format/Info : Advanced Audio Codec
Format profile : LC
Codec ID : 40
Duration : 1h 58mn
Bit rate mode : Variable
Bit rate : 157 Kbps
Maximum bit rate : 240 Kbps
Channel(s) : 6 channels
Channel positions : Front: L C R, Side: L R, LFE
Sampling rate : 48.0 KHz
Compression mode : Lossy
Stream size : 133 MiB (10%)
Encoded date : UTC 2011-01-15 18:50:03
Tagged date : UTC 2011-01-15 18:50:05



-Релиз предназначен только для воспроизведения на iPhone 4, iPod Touch 4g и iPad
На более ранних поколениях девайсов Apple он не воспроизведётся!

По отзывам пользователей, фильм идет и на iPhone 3gs, но сам лично не проверял.-Описание Retina Display-Чтобы не было вопросов, объясняю: iPhone 4, iPod Touch 4 и iPad поддерживают видео H.264 с частотой развёртки до 720p, т.е. до 1280 x 720 пикселей.ссылка
Download / Скачать

Хотите скачать бесплатно? Зарегистрируйтесь на сайте (ссылка на регистрацию). Pirat.ca - самый быстрый торрент трекер в рунете!

Как скачивать  ·   Что такое торрент  ·   Рейтинг и ограничения

sebitev

Морской Волк

Пост 17-Фев-2012 23:15 (спустя 1 месяц 15 дней)

[Q] 

[Профиль]  [ЛС] 

Recon105

Штурман

Пост 05-Сен-2013 16:18 (спустя 1 год 6 месяцев)

[Q] 

Та же беда, что и в других раздачах - не полностью переведен фильм!

_________________
Обиваю двери кожей заказчика...
[Профиль]  [ЛС] 
Показать сообщения:    
Ответить на тему

Текущее время: Сегодня 22:32

Часовой пояс: GMT + 4



Вы не можете начинать темы
Вы не можете отвечать на сообщения
Вы не можете редактировать свои сообщения
Вы не можете удалять свои сообщения
Вы не можете голосовать в опросах
Вы не можете прикреплять файлы к сообщениям
Вы не можете скачивать файлы

Майнать ▼