Как приручить дракона / How to Train Your Dragon (Дин ДеБлуа / Dean DeBlois, Крис Сандерс / Chris Sanders) [2010 г., Компьютерная анимация, Приключения, Комедия, BDRip-AVC] AVO (Гаврилов) + Subs (Rus, Eng, Comments)

Ответить на тему
 
Автор
Сообщение

Пост 02-Фев-2014 02:53

[Q] 

anton966

Как приручить дракона / How to Train Your Dragon«One adventure will change two worlds»- Год выпуска: 2010
Производство: США
Жанр: Компьютерная анимация, Приключения, Комедия
Продолжительность: 01:37:51
Перевод: Авторский (одноголосый, закадровый) Андрей Гаврилов
Субтитры: русские, английские, комментарии
Режиссер: Дин ДеБлуа / Dean DeBlois, Крис Сандерс / Chris Sanders
Персонажи: Джей Барушель (Hiccup), Джерард Батлер (Stoick), Крэйг Фергюсон (Gobber), Америка Феррера (Astrid), Джона Хилл (Snotlout), Кристофер Минц-Плассе (Fishlegs), ТиДжей Миллер (Tuffnut), Кристен Уиг (Ruffnut), Робин Аткин Даунс (Ack), Филип МакГрэйд (Starkard), Кирон Эллиотт (Hoark the Haggard), Дэвид Теннант (Spitelout)
Описание: Вы узнаете историю подростка Иккинга, которому не слишком близки традиции его героического племени, много лет ведущего войну с драконами. Мир Иккинга переворачивается с ног на голову, когда он неожиданно встречает дракона Беззубика, который поможет ему и другим викингам увидеть привычный мир с совершенно другой стороны…
Мультфильм снят режиссёрами Крисом Сандерсом и Дином Деблуа ("Лило и Стич") по мотивам одноимённой серии книг британской детской писательницы Крессиды Коуэлл.

Доп. информация: Перевод Гаврилова с раздачи dunhill200, за что ему большое спасибо!!

Источник/Качество: BDRip
Контейнер: MKV
Видео кодек: MPEG-4 AVC / H.264
Видео: 1200x510 / 2752 kbps / 23,976 fps / 16:9 / High Profile 4.1
Аудио: 48 kHz, AC3 Dolby Digital, 3/2 (L,C,R,l,r) + LFE ch, ~448 kbps avg - Гаврилов
Формат : Matroska
Версия формата : Version 4 / Version 2
Размер файла : 2,11 Гбайт
Продолжительность : 1 ч. 37 м.
Общий поток : 3090 Кбит/сек
Название фильма : How to Train Your Dragon 2010
Дата кодирования : UTC 2014-02-01 19:57:42
Программа кодирования : mkvmerge v6.7.0 ('Back to the Ground') 32bit built on Jan 8 2014 15:03:17
Библиотека кодирования : libebml v1.3.0 + libmatroska v1.4.1
Attachment : Yes
Видео
Идентификатор : 1
Формат : AVC
Формат/Информация : Advanced Video Codec
Профиль формата : High@L4.1
Параметр CABAC формата : Да
Параметр ReFrames формата : 11 кадров
Идентификатор кодека : V_MPEG4/ISO/AVC
Продолжительность : 1 ч. 37 м.
Битрейт : 2580 Кбит/сек
Номинальный битрейт : 2752 Кбит/сек
Ширина : 1200 пикселей
Высота : 510 пикселей
Соотношение сторон : 2,35:1
Режим частоты кадров : Постоянный
Частота кадров : 23,976 кадра/сек
Цветовое пространство : YUV
Субдискретизация насыщенности : 4:2:0
Битовая глубина : 8 бит
Тип развёртки : Прогрессивная
Бит/(Пиксели*Кадры) : 0.176
Размер потока : 1,76 Гбайт (84%)
Заголовок : How to Train Your Dragon
Библиотека кодирования : x264 core 107 r1745 4785e8e
Настройки программы : cabac=1 / ref=11 / deblock=1:-2:-2 / analyse=0x3:0x133 / me=umh / subme=10 / psy=1 / psy_rd=0.90:0.04 / mixed_ref=1 / me_range=32 / chroma_me=1 / trellis=2 / 8x8dct=1 / cqm=0 / deadzone=21,11 / fast_pskip=0 / chroma_qp_offset=-3 / threads=6 / sliced_threads=0 / nr=0 / decimate=1 / interlaced=0 / constrained_intra=0 / bframes=8 / b_pyramid=2 / b_adapt=2 / b_bias=0 / direct=3 / weightb=1 / open_gop=0 / weightp=2 / keyint=250 / keyint_min=23 / scenecut=40 / intra_refresh=0 / rc=2pass / mbtree=0 / bitrate=2752 / ratetol=1.0 / qcomp=0.70 / qpmin=10 / qpmax=51 / qpstep=4 / cplxblur=20.0 / qblur=0.5 / ip_ratio=1.40 / pb_ratio=1.30 / aq=2:0.80
Язык : English
Default : Нет
Forced : Нет
Коэффициенты матрицы : BT.709
Аудио
Идентификатор : 2
Формат : AC-3
Формат/Информация : Audio Coding 3
Расширение режима : CM (complete main)
Параметр Endianness формата : Big
Идентификатор кодека : A_AC3
Продолжительность : 1 ч. 37 м.
Вид битрейта : Постоянный
Битрейт : 448 Кбит/сек
Каналы : 6 каналов
Расположение каналов : Front: L C R, Side: L R, LFE
Частота : 48,0 КГц
Битовая глубина : 16 бит
Метод сжатия : С потерями
Размер потока : 314 Мбайт (14%)
Заголовок : Gavrilov
Язык : Russian
Default : Да
Forced : Нет
Текст #1
Идентификатор : 3
Формат : UTF-8
Идентификатор кодека : S_TEXT/UTF8
Идентификатор кодека/Информация : UTF-8 Plain Text
Заголовок : BD CEE
Язык : Russian
Default : Нет
Forced : Нет
Текст #2
Идентификатор : 4
Формат : UTF-8
Идентификатор кодека : S_TEXT/UTF8
Идентификатор кодека/Информация : UTF-8 Plain Text
Заголовок : Voronine
Язык : Russian
Default : Нет
Forced : Нет
Текст #3
Идентификатор : 5
Формат : UTF-8
Идентификатор кодека : S_TEXT/UTF8
Идентификатор кодека/Информация : UTF-8 Plain Text
Язык : English
Default : Нет
Forced : Нет
Текст #4
Идентификатор : 6
Формат : UTF-8
Идентификатор кодека : S_TEXT/UTF8
Идентификатор кодека/Информация : UTF-8 Plain Text
Заголовок : Commentary
Язык : Russian
Default : Нет
Forced : Нет
Меню
00:00:00.000 : :Chapter 1
00:08:39.811 : :Chapter 2
00:11:31.983 : :Chapter 3
00:15:11.035 : :Chapter 4
00:21:57.107 : :Chapter 5
00:27:41.702 : :Chapter 6
00:33:14.201 : :Chapter 7
00:39:07.136 : :Chapter 8
00:43:28.731 : :Chapter 9
00:47:08.367 : :Chapter 10
00:49:47.193 : :Chapter 11
00:59:55.801 : :Chapter 12
01:04:47.383 : :Chapter 13
01:09:28.164 : :Chapter 14
01:12:38.187 : :Chapter 15
01:23:26.043 : :Chapter 16
01:28:54.496 : :Chapter 17
Download / Скачать

Хотите скачать бесплатно? Зарегистрируйтесь на сайте (ссылка на регистрацию). Pirat.ca - самый быстрый торрент трекер в рунете!

Как скачивать  ·   Что такое торрент  ·   Рейтинг и ограничения



Последний раз редактировалось: anton966 (2014-02-24 19:08), всего редактировалось 2 раз(а)

gross1978

7648

Пост 02-Фев-2014 10:43 (спустя 7 часов)

[Q] 

Мой любимый размерчик. Спасибо огромное.

_________________
Употребляйте правильно слова, и вы избавите мир от половины недоразумений (Р.Декарт).
Если у Вас есть переводы в авторском, которых нет в моих раздачах и желание ими поделиться, пишите, добавим:)
[Профиль]  [ЛС] 

anton966 ®

10851

Пост 02-Фев-2014 11:18 (спустя 34 минуты)

[Q] 

gross1978,
Не за что. Приходи есчо!

_________________
" ...потому что во многой мудрости много печали; и кто умножает познания, умножает скорбь" ( Еккл 1:17,18)
[Профиль]  [ЛС] 

stivgsm

Пост 17-Дек-2014 01:38 (спустя 10 месяцев 14 дней)

[Q] 

спасибо!! Раздающему респект!
[Профиль]  [ЛС] 

Bogdan_G

Лоцман

Пост 06-Янв-2015 22:50 (спустя 20 дней)

[Q] 

Поддайте жару! Скорость как у черепахи
[Профиль]  [ЛС] 

fex

Морской Волк

Пост 04-Фев-2015 00:28 (спустя 28 дней)

[Q] 

Супер мультик - ребенок в восторге.

_________________
Всегда телефон в микроволновке заряжаю, на две минуты ставлю. Оперативку отлично очищает и удаляет системный мусор.
[Профиль]  [ЛС] 
Показать сообщения:    
Ответить на тему

Текущее время: Сегодня 21:10

Часовой пояс: GMT + 4



Вы не можете начинать темы
Вы не можете отвечать на сообщения
Вы не можете редактировать свои сообщения
Вы не можете удалять свои сообщения
Вы не можете голосовать в опросах
Вы не можете прикреплять файлы к сообщениям
Вы не можете скачивать файлы

Майнать ▼