Уважаемый Гость!
Вы можете поддержать проект и зарегистрироваться у наших партнеров - онлайн-стратегия MyLands. При регистрации в игре Вы получите код, который сможете активировать после регистрации на pirat.ca и получить 1000 дублонов.

Ваш код:
393910aa880851f3588d233e41ce0a35a9e3ebac
 
     

Нянька на Рождество / A Nanny for Christmas (Майкл Фейфер / Michael Feifer) [2010 г., комедия, DVDRip] (DVO)

Ответить на тему
 
Автор
Сообщение

Пост 07-Янв-2012 17:42

[Q] 

erchine

Нянька на Рождество / A Nanny for Christmas
Год выпуска: 2010
Мировая премьера: 21 ноября 2010
Производство: США
Жанр: комедия
Продолжительность: 1:27:41
Перевод: Любительский (двухголосый, закадровый)
Режиссер: Майкл Фейфер / Michael Feifer
В ролях: Эммануэль Вожье, Дин Кэйн, Ричард Рукколо, Синтия Гибб, Сьерра МакКормик, Джаред Гилмор, Сара Томпсон, Клайд Кусацу, Джон Бурк, Кайа Коли
Описание: Перед самыми праздниками молодая руководительница рекламного отдела теряет свою перспективную работу, однако, не растерявшись, быстро находит новую у босса конкурирующей фирмы в качестве няньки. Вскоре ей предстоит ответить себе на самый важный вопрос — кто же она на самом деле, т. к. дети и романтические отношения уравновешивают ее тягу к карьеризму.
IMDB, КиноПоиск
Источник/Качество: DVDRip
Формат: AVI
Видео кодек: XviD
Аудио кодек: AC3
Видео: 720x400, 23.976 fps, 1769 Kbps
Аудио: Dolby AC3 48000Hz 6ch 448kbps
General
Complete name : F:\Nianika.na.rojdestvo.2010.XviD.DVDRip.avi
Format : AVI
Format/Info : Audio Video Interleave
File size : 1.36 GiB
Duration : 1h 27mn
Overall bit rate : 2 226 Kbps
Writing application : VirtualDubMod 1.5.10.2 (build 2540/release)
Writing library : VirtualDubMod build 2540/release
Video
ID : 0
Format : MPEG-4 Visual
Format profile : Advanced [email protected]
Format settings, BVOP : 2
Format settings, QPel : No
Format settings, GMC : No warppoints
Format settings, Matrix : Default (H.263)
Codec ID : XVID
Codec ID/Hint : XviD
Duration : 1h 27mn
Bit rate : 1 769 Kbps
Width : 720 pixels
Height : 400 pixels
Display aspect ratio : 16:9
Frame rate : 23.976 fps
Color space : YUV
Chroma subsampling : 4:2:0
Bit depth : 8 bits
Scan type : Progressive
Compression mode : Lossy
Bits/(Pixel*Frame) : 0.256
Stream size : 1.08 GiB (79%)
Writing library : XviD 1.2.1 (UTC 2008-12-04)
Audio
ID : 1
Format : AC-3
Format/Info : Audio Coding 3
Mode extension : CM (complete main)
Codec ID : 2000
Duration : 1h 27mn
Bit rate mode : Constant
Bit rate : 448 Kbps
Channel(s) : 6 channels
Channel positions : Front: L C R, Side: L R, LFE
Sampling rate : 48.0 KHz
Bit depth : 16 bits
Compression mode : Lossy
Stream size : 281 MiB (20%)
Alignment : Split accross interleaves
Interleave, duration : 42 ms (1.00 video frame)
Interleave, preload duration : 500 ms
Download / Скачать

Хотите скачать бесплатно? Зарегистрируйтесь на сайте (ссылка на регистрацию). Pirat.ca - самый быстрый торрент трекер в рунете!

Как скачивать  ·   Что такое торрент  ·   Рейтинг и ограничения

Пост 07-Янв-2012 18:52 (спустя 1 час 9 минут)

Топик был перенесен из форума Художественные фильмы (Зарубежное кино) в форум Современное кино (с 2000 г.)

goxakrauter
 

CHARLI2236

1186

Пост 27-Июл-2013 11:20 (спустя 1 год 6 месяцев)

[Q] 

3

_________________
[Профиль]  [ЛС] 
Показать сообщения:    
Ответить на тему

Текущее время: Сегодня 03:34

Часовой пояс: GMT + 4



Вы не можете начинать темы
Вы не можете отвечать на сообщения
Вы не можете редактировать свои сообщения
Вы не можете удалять свои сообщения
Вы не можете голосовать в опросах
Вы не можете прикреплять файлы к сообщениям
Вы не можете скачивать файлы

▼ Вниз