(Indie Rock, Blues Rock) The Black Keys - Turn Blue - 2014 [FLAC, tracks+.cue, lossless]

Ответить на тему
 
Автор
Сообщение

Пост 21-Май-2014 21:59

[Q] 

-B1ack-



The Black Keys / Turn Blue


Год издания: 2014
Страна: USA
Жанр: Indie Rock, Blues Rock
Продолжительность: 00:45:12
Лейбл издания: Nonesuch Records
Страна-выпуска диска: United Kingdom
Номер по каталогу: 7559-79555-4
Источник (релизер): Собственныи Диск! (Zephyr)
Формат:

Битрейт аудио: lossless
Тип рипа: tracks+.cue
Наличие сканов в содержимом раздачи: да



1. Weight Of Love
2. In Time
3. Turn Blue
4. Fever
5. Year In Review
6. Bullet In The Brain
7. It's Up To You Now
8. Waiting On Words
9. 10 Lovers
10. In Our Prime
11. Gotta Get Away

Exact Audio Copy V1.0 beta 3 from 29. August 2011
EAC extraction logfile from 10. May 2014, 7:14
The Black Keys / Turn Blue
Used drive : SAMSUNG DVDWBD SH-B083L Adapter: 4 ID: 1
Read mode : Secure
Utilize accurate stream : Yes
Defeat audio cache : Yes
Make use of C2 pointers : No
Read offset correction : 6
Overread into Lead-In and Lead-Out : No
Fill up missing offset samples with silence : Yes
Delete leading and trailing silent blocks : No
Null samples used in CRC calculations : Yes
Used interface : Native Win32 interface for Win NT & 2000
Gap handling : Appended to previous track
Used output format : User Defined Encoder
Selected bitrate : 1024 kBit/s
Quality : High
Add ID3 tag : No
Command line compressor : C:\Program Files (x86)\FLAC\flac.exe
Additional command line options : -8 -V -T "ARTIST=%artist%" -T "TITLE=%title%" -T "ALBUM=%albumtitle%" -T "DATE=%year%" -T "TRACKNUMBER=%tracknr%" -T "GENRE=%genre%" -T "PERFORMER=%albuminterpret%" -T "COMPOSER=%composer%" %haslyrics%--tag-from-file=LYRICS="%lyricsfile%"%haslyrics% -T "ALBUMARTIST=%albumartist%" -T "DISCNUMBER=%cdnumber%" -T "TOTALDISCS=%totalcds%" -T "TOTALTRACKS=%numtracks%" -T "COMMENT=%comment%" %source% -o %dest%
TOC of the extracted CD
Track | Start | Length | Start sector | End sector
---------------------------------------------------------
1 | 0:00.00 | 6:50.14 | 0 | 30763
2 | 6:50.14 | 4:28.09 | 30764 | 50872
3 | 11:18.23 | 3:42.72 | 50873 | 67594
4 | 15:01.20 | 4:06.23 | 67595 | 86067
5 | 19:07.43 | 3:48.09 | 86068 | 103176
6 | 22:55.52 | 4:15.71 | 103177 | 122372
7 | 27:11.48 | 3:10.54 | 122373 | 136676
8 | 30:22.27 | 3:37.09 | 136677 | 152960
9 | 33:59.36 | 3:33.17 | 152961 | 168952
10 | 37:32.53 | 4:38.08 | 168953 | 189810
11 | 42:10.61 | 3:02.13 | 189811 | 203473
Track 1
Filename P:\01 - Weight Of Love.wav
Pre-gap length 0:00:02.00
Peak level 96.8 %
Extraction speed 2.4 X
Track quality 100.0 %
Test CRC AAF28ECD
Copy CRC AAF28ECD
Track not present in AccurateRip database
Copy OK
Track 2
Filename P:\02 - In Time.wav
Peak level 96.8 %
Extraction speed 2.5 X
Track quality 100.0 %
Test CRC 23152EDD
Copy CRC 23152EDD
Track not present in AccurateRip database
Copy OK
Track 3
Filename P:\03 - Turn Blue.wav
Peak level 96.5 %
Extraction speed 2.6 X
Track quality 100.0 %
Test CRC 7C6F0DEB
Copy CRC 7C6F0DEB
Track not present in AccurateRip database
Copy OK
Track 4
Filename P:\04 - Fever.wav
Peak level 96.4 %
Extraction speed 2.3 X
Track quality 99.9 %
Test CRC D59FD0FF
Copy CRC D59FD0FF
Track not present in AccurateRip database
Copy OK
Track 5
Filename P:\05 - Year In Review.wav
Peak level 96.4 %
Extraction speed 2.9 X
Track quality 100.0 %
Test CRC 15582AD1
Copy CRC 15582AD1
Track not present in AccurateRip database
Copy OK
Track 6
Filename P:\06 - Bullet In The Brain.wav
Peak level 96.6 %
Extraction speed 2.5 X
Track quality 99.9 %
Test CRC 7EE7574F
Copy CRC 7EE7574F
Track not present in AccurateRip database
Copy OK
Track 7
Filename P:\07 - It's Up To You Now.wav
Peak level 96.4 %
Extraction speed 3.1 X
Track quality 100.0 %
Test CRC 2C04E860
Copy CRC 2C04E860
Track not present in AccurateRip database
Copy OK
Track 8
Filename P:\08 - Waiting On Words.wav
Peak level 97.8 %
Extraction speed 2.6 X
Track quality 99.9 %
Test CRC D46CBCA6
Copy CRC D46CBCA6
Track not present in AccurateRip database
Copy OK
Track 9
Filename P:\09 - 10 Lovers.wav
Peak level 96.5 %
Extraction speed 3.4 X
Track quality 100.0 %
Test CRC 868FD952
Copy CRC 868FD952
Track not present in AccurateRip database
Copy OK
Track 10
Filename P:\10 - In Our Prime.wav
Peak level 96.5 %
Extraction speed 3.7 X
Track quality 100.0 %
Test CRC 03DF9943
Copy CRC 03DF9943
Track not present in AccurateRip database
Copy OK
Track 11
Filename P:\11 - Gotta Get Away.wav
Peak level 96.4 %
Extraction speed 3.6 X
Track quality 100.0 %
Test CRC 41DC1A50
Copy CRC 41DC1A50
Track not present in AccurateRip database
Copy OK
None of the tracks are present in the AccurateRip database
No errors occurred
End of status report
---- CUETools DB Plugin V2.1.3
[CTDB TOCID: hWt5tVpSurewebhNaYiApQITHP4-] found, Submit result: already submitted
[224507c4] (7/7) Accurately ripped
==== Log checksum C9DA9D66C1CB5A147D707FF76BE1BA54D2A9B889E68719F79EBD043E13B7373F ====
REM GENRE Blues
REM DATE 2014
REM DISCID 800A980B
REM COMMENT "ExactAudioCopy v1.0b3"
CATALOG 0075597955545
PERFORMER "The Black Keys"
TITLE "Turn Blue"
FILE "01 - Weight Of Love.wav" WAVE
TRACK 01 AUDIO
TITLE "Weight Of Love"
PERFORMER "The Black Keys"
ISRC USNO11400177
FLAGS DCP
INDEX 01 00:00:00
FILE "02 - In Time.wav" WAVE
TRACK 02 AUDIO
TITLE "In Time"
PERFORMER "The Black Keys"
ISRC USNO11400178
FLAGS DCP
INDEX 01 00:00:00
FILE "03 - Turn Blue.wav" WAVE
TRACK 03 AUDIO
TITLE "Turn Blue"
PERFORMER "The Black Keys"
ISRC USNO11400179
FLAGS DCP
INDEX 01 00:00:00
FILE "04 - Fever.wav" WAVE
TRACK 04 AUDIO
TITLE "Fever"
PERFORMER "The Black Keys"
ISRC USNO11400180
FLAGS DCP
INDEX 01 00:00:00
FILE "05 - Year In Review.wav" WAVE
TRACK 05 AUDIO
TITLE "Year In Review"
PERFORMER "The Black Keys"
ISRC USNO11400181
FLAGS DCP
INDEX 01 00:00:00
FILE "06 - Bullet In The Brain.wav" WAVE
TRACK 06 AUDIO
TITLE "Bullet In The Brain"
PERFORMER "The Black Keys"
ISRC USNO11400182
FLAGS DCP
INDEX 01 00:00:00
FILE "07 - It's Up To You Now.wav" WAVE
TRACK 07 AUDIO
TITLE "It's Up To You Now"
PERFORMER "The Black Keys"
ISRC USNO11400183
FLAGS DCP
INDEX 01 00:00:00
FILE "08 - Waiting On Words.wav" WAVE
TRACK 08 AUDIO
TITLE "Waiting On Words"
PERFORMER "The Black Keys"
ISRC USNO11400183
FLAGS DCP
INDEX 01 00:00:00
FILE "09 - 10 Lovers.wav" WAVE
TRACK 09 AUDIO
TITLE "10 Lovers"
PERFORMER "The Black Keys"
ISRC USNO11400185
FLAGS DCP
INDEX 01 00:00:00
FILE "10 - In Our Prime.wav" WAVE
TRACK 10 AUDIO
TITLE "In Our Prime"
PERFORMER "The Black Keys"
ISRC USNO11400186
FLAGS DCP
INDEX 01 00:00:00
FILE "11 - Gotta Get Away.wav" WAVE
TRACK 11 AUDIO
TITLE "Gotta Get Away"
PERFORMER "The Black Keys"
ISRC USNO11400187
FLAGS DCP
INDEX 01 00:00:00
Download / Скачать

Хотите скачать бесплатно? Зарегистрируйтесь на сайте (ссылка на регистрацию). Pirat.ca - самый быстрый торрент трекер в рунете!

Как скачивать  ·   Что такое торрент  ·   Рейтинг и ограничения

viktor41

Морской Волк

Пост 22-Май-2014 20:26 (спустя 22 часа)

[Q] 

-B1ack-, Спасибо ! aa aa
[Профиль]  [ЛС] 

-B1ack- ®

1906

Пост 22-Май-2014 20:28 (спустя 1 минута)

[Q] 

538068-B1ack-, Спасибо ! aa aa
на здоровье, альбом легкий и приятный

_________________
[Профиль]  [ЛС] 

Пират Пиратович

350

Пост 24-Май-2014 01:18 (спустя 1 день 4 часа)

[Q] 

Мне понравилось
[Профиль]  [ЛС] 

BilG

Флибустьер

Пост 13-Мар-2017 14:32 (спустя 2 года 9 месяцев)

[Q] 

Сердечно благодарю !
Добавлено спустя 27 минут 49 секунд:
Уважуха!!!

_________________
[Профиль]  [ЛС] 
Показать сообщения:    
Ответить на тему

Текущее время: Сегодня 23:38

Часовой пояс: GMT + 4



Вы не можете начинать темы
Вы не можете отвечать на сообщения
Вы не можете редактировать свои сообщения
Вы не можете удалять свои сообщения
Вы не можете голосовать в опросах
Вы не можете прикреплять файлы к сообщениям
Вы не можете скачивать файлы

Майнать ▼