Уважаемый Гость!
Вы можете поддержать проект и зарегистрироваться у наших партнеров - онлайн-стратегия MyLands. При регистрации в игре Вы получите код, который сможете активировать после регистрации на pirat.ca и получить 1000 дублонов.

Ваш код:
393910aa880851f3588d233e41ce0a35a9e3ebac
 
     

Призрак оперы в королевском Альберт-холле / The Phantom of the Opera at the Royal Albert Hall (Лоуренс Коннор / Laurence Connor) [2011 г., мюзикл, BDRip] (Sub)

Ответить на тему
 
Автор
Сообщение

Пост 14-Янв-2012 01:09

[Q] 

erchine

Призрак оперы в королевском Альберт-холле / The Phantom of the Opera at the Royal Albert Hall/(2 серии из 2)
Год выпуска: 2011
Мировая премьера: 2 октября 2011
Производство: Великобритания
Жанр: мюзикл
Продолжительность (серия 1): 1:14:52
Продолжительность (серия 2): 1:24:53
Перевод: Субтитры
Оригинальный аудиопоток: английский
Субтитры: русские
Режиссер: Лоуренс Коннор / Laurence Connor
В ролях
Рамин Каримлу, Сьерра Боггесс, Хедли Фрейзер, Барри Джеймс, Гарет Снук, Сергей Полунин, Майкл Кроуфорд, Сара Брайтман
Описание
Cамое успешное шоу всех времен празднует 25-летие. Его поставили в 20 странах мира, его видело более 80 миллионов человек, доходы составили почти четыре миллиарда долларов. Такими цифрами не может похвастаться ни один фильм, ни одно спортивное соревнование или музыкальные гастроли. Мюзикл «Призрак оперы» и впрямь не имеет себе равных в истории развлечений. Первым «призраком» был Майкл Кроуфорд (Michael Crawford), а женскую роль тогда сыграла бывшая жена композитора Сара Брайтман (Sarah Brightman), которую Уэббер называл своим ангелом музыки. В этот вечер в Альберт-холле она вновь исполнила роль Кристины, которая однажды сделала певицу всемирно известной. Автор шедевра рассказывает: «Сегодняшний праздник вернул давно забытые переживания. Мы с Сарой работали много раз с тех пор, как были женаты. Я рад, что она снова с нами. И все же самое удивительное для меня – это вновь увидеть Майкла и Сару на одних подмостках. Не думал, что это когда-нибудь случится»... Представление из забитого до отказа зала транслировалось в прямом эфире во многие кинотеатры мира. Запись выступления 2 октября 2011 года.
IMDB , КиноПоиск
Источник/Качество: BDRip
Формат: AVI
Видео кодек: XviD
Аудио кодек: AC3
Видео: Xvid 704x400 23.98fps, 1457 Kbps
Аудио: Dolby AC3 48000Hz 6ch 448kbps
Формат субтитров: softsub (SRT)
• 1986 LONDON – Olivier Awards
Outstanding Performance in a Musical – Michael Crawford, Musical of the Year
• 1986 LONDON - Evening Standard Theatre Awards, Best Musical
• 1988 NEW YORK – Tony Awards, Best Musical
Leading Actor in a Musical – Michael Crawford
Featured Actress in a Musical – Judy Kaye (Carlotta)
Director (Musical) - Hal Prince
Set Designer - Maria Bjornson
Costume Designer - Maria Bjornson
Lighting Designer - Andrew Bridge
• 1988 NEW YORK – Drama Desk Awards
Outstanding Director of a Musical – Hal Prince
Outstanding Actor in a Musical – Michael Crawford
Outstanding Music – Andrew Lloyd Webber
Outstanding Orchestration – David Cullen and Andrew Lloyd Webber
Outstanding Set Design – Maria Bjornson
Outstanding Costume Design – Maria Bjornson
Outstanding Lighting Design – Andrew Bridge
• 1988 NEW YORK – Outer Critics Circle Awards, Best Broadway Musical
Best Actor (Musical) – Michael Crawford
Best Set Design – Maria Bjornson
Best Costume Design – Maria Bjornson
Best Lighting Design – Andrew Bridge
• 1989/90 LOS ANGELES – Drama Critics Awards
Leading Performance - Michael Crawford
Best Set Design - Maria Bjornson
Best Costume Design - Maria Bjornson
Best Lighting Design – Andrew Bridge
• 1989/90 TORONTO – Dora Mavor Moore Awards
Outstanding Production
Outstanding Male Performance – Colm Wilkinson
Outstanding Direction – Hal Prince
Outstanding Set Design – Maria Bjornson
Outstanding Costume Design – Maria Bjornson
Outstanding Lighting Design – Andrew Bridge
• 1989/90 STOCKHOLM – Guldmasken Awards
Best Scenography/Set Decoration – Maria Bjornson
Best Leading Actor – Mikael Samuelson (Phantom)
Best Supporting Actor – Bert-Ake Varg (Firmin)
Jury’s Special Prize: Producer – Goran Lindgren
• 1989/90 SWEDEN – Svenska Dagbladets Operapris, Mikael Samuelson (Phantom)
• 1990 AUSTRALIA – Mo Awards
Musical Theatre Performer of the Year – Anthony Warlow
Supporting Female Musical Theatre Performer – Christa Leahmann
Male Musical Theatre Performer – Anthony Warlow
Female Musical Theatre Performer – Marina Prior
Musical Theatre Production – The Phantom of the Opera
• 1991 AUSTRALIA – Victorian Tourism and Australian Hotels Association Awards, Best Tourist Attraction – The Phantom of the Opera / Melbourne
• 1991 AUSTRALIA – Womens Weekly Golden Gavel Awards, Miscellaneous – The Phantom of the Opera / Melbourne
• 1991 AUSTRALIA – Australian Tourism Awards, Award of Distinction in Festivals and Special Events – The Phantom of the Opera/Melbourne
• 1991 AUSTRALIA – Victorian Green Room Awards
Production – Cameron Mackintosh
Direction - Harold Prince
Set Design – Maria Bjornson
Costume Design – Maria Bjornson
Male Performer in a Leading Role – Anthony Warlow
Female Performer in a Leading Role – Marina Prior
• 1999/2001 UK – Group Leisure Industry Award, Best Theatre Production
• 2002 LONDON – Olivier Awards, Audience Award for Most Popular Show
General
Complete name : F:\The.Phantom.of.the.Opera.at.the.Royal.Albert.Hall.(2.iz.2).2011.XviD.BDRip\The.Phantom.of.the.Opera.at.the.Royal.Albert.Hall.(1.iz.2).2011.XviD.BDRip.avi
Format : AVI
Format/Info : Audio Video Interleave
File size : 1.00 GiB
Duration : 1h 14mn
Overall bit rate : 1 914 Kbps
Movie name : The Phantom of the Opera at the Royal Albert Hall. Part I
Director : Rip by MC
Genre : Musical/Romance
Writing application : VirtualDubMod 1.5.10.3 | www.virtualdub-fr.org || (build 2550/release)
Original source form/Name : Music Video
Video
ID : 0
Format : MPEG-4 Visual
Format profile : Advanced [email protected]
Format settings, BVOP : Yes
Format settings, QPel : No
Format settings, GMC : No warppoints
Format settings, Matrix : Default (MPEG)
Codec ID : XVID
Codec ID/Hint : XviD
Duration : 1h 14mn
Bit rate : 1 457 Kbps
Width : 704 pixels
Height : 400 pixels
Display aspect ratio : 16:9
Frame rate : 23.976 fps
Resolution : 8 bits
Colorimetry : 4:2:0
Scan type : Progressive
Bits/(Pixel*Frame) : 0.216
Stream size : 780 MiB (76%)
Writing library : XviD 64
Audio
ID : 1
Format : AC-3
Format/Info : Audio Coding 3
Format_Settings_ModeExtension : CM (complete main)
Codec ID : 2000
Duration : 1h 14mn
Bit rate mode : Constant
Bit rate : 448 Kbps
Channel(s) : 6 channels
Channel positions : Front: L C R, Side: L R, LFE
Sampling rate : 48.0 KHz
Stream size : 240 MiB (23%)
Alignment : Split accross interleaves
Interleave, duration : 42 ms (1.00 video frame)
Interleave, preload duration : 500 ms
General
Complete name : F:\The.Phantom.of.the.Opera.at.the.Royal.Albert.Hall.(2.iz.2).2011.XviD.BDRip\The.Phantom.of.the.Opera.at.the.Royal.Albert.Hall.(2.iz.2).2011.XviD.BDRip.avi
Format : AVI
Format/Info : Audio Video Interleave
File size : 1.18 GiB
Duration : 1h 24mn
Overall bit rate : 1 988 Kbps
Movie name : The Phantom of the Opera at the Royal Albert Hall. Part II
Director : Rip by MC
Genre : Musical/Romance
Writing application : VirtualDubMod 1.5.10.3 | www.virtualdub-fr.org || (build 2550/release)
Original source form/Name : Music Video
Video
ID : 0
Format : MPEG-4 Visual
Format profile : Advanced [email protected]
Format settings, BVOP : Yes
Format settings, QPel : No
Format settings, GMC : No warppoints
Format settings, Matrix : Default (MPEG)
Codec ID : XVID
Codec ID/Hint : XviD
Duration : 1h 24mn
Bit rate : 1 531 Kbps
Width : 704 pixels
Height : 400 pixels
Display aspect ratio : 16:9
Frame rate : 23.976 fps
Resolution : 8 bits
Colorimetry : 4:2:0
Scan type : Progressive
Bits/(Pixel*Frame) : 0.227
Stream size : 929 MiB (77%)
Writing library : XviD 64
Audio
ID : 1
Format : AC-3
Format/Info : Audio Coding 3
Format_Settings_ModeExtension : CM (complete main)
Codec ID : 2000
Duration : 1h 24mn
Bit rate mode : Constant
Bit rate : 448 Kbps
Channel(s) : 6 channels
Channel positions : Front: L C R, Side: L R, LFE
Sampling rate : 48.0 KHz
Stream size : 272 MiB (23%)
Alignment : Split accross interleaves
Interleave, duration : 42 ms (1.00 video frame)
Interleave, preload duration : 500 ms
Download / Скачать

Хотите скачать бесплатно? Зарегистрируйтесь на сайте (ссылка на регистрацию). Pirat.ca - самый быстрый торрент трекер в рунете!

Как скачивать  ·   Что такое торрент  ·   Рейтинг и ограничения

Billy_Bons

Шкипер

Пост 13-Июн-2012 21:32 (спустя 4 месяца 30 дней)

[Q] 

Спасибо!
[Профиль]  [ЛС] 

pimienta.sib

Штурман

Пост 16-Авг-2012 18:21 (спустя 2 месяца 2 дня)

[Q] 

Не сильно зацепило, наверное еще мал :-)

_________________
Всегда выигрывает тот, - кто играет нечестно. Врите и лгите. Ваща жизнь будет красочнее и четче!
[Профиль]  [ЛС] 

CHARLI2236

1186

Пост 25-Июл-2013 18:57 (спустя 11 месяцев 9 дней)

[Q] 

00

_________________
[Профиль]  [ЛС] 
Показать сообщения:    
Ответить на тему

Текущее время: Сегодня 03:25

Часовой пояс: GMT + 4



Вы не можете начинать темы
Вы не можете отвечать на сообщения
Вы не можете редактировать свои сообщения
Вы не можете удалять свои сообщения
Вы не можете голосовать в опросах
Вы не можете прикреплять файлы к сообщениям
Вы не можете скачивать файлы

▼ Вниз