Уважаемый Гость!
Вы можете поддержать проект и зарегистрироваться у наших партнеров - онлайн-стратегия MyLands. При регистрации в игре Вы получите код, который сможете активировать после регистрации на pirat.ca и получить 1000 дублонов.

Ваш код:
e97448b672ad9b92bef9c116971d883e11324603
 
     

Смертельное оружие. Квадрология / Lethal Weapon. Collection (1987/1989/1992/1998) (Ричард Доннер / Richard Donner) [боевик, триллер, комедия, криминал, BDRip, 720p] Dub + MVO + AVO + Sub (rus, eng)

Ответить на тему
 
Автор
Сообщение

Пост 23-Авг-2014 22:34

[Q] 

gross1978

Смертельное оружие. Квадрология / Lethal Weapon. Collection
Год выпуска: 1987/1989/1992/1998
Производство: США
Жанр: боевик, триллер, комедия, криминал
Качество: BDRip, 720р
Продолжительность: 01:49:37 | 01:54:27 | 01:57:53 | 02:07:23
Субтитры: Русские, Английские (во всех частях)
Формат субтитров: Softsub (SRT)
Навигация по главам: СохраненаМнение автора релиза: Фильм «Смертельное оружие» стал собственно первым фильмом, который я посмотрел на VHS на своем первом магнитофоне в далеком 1989 году, в те смутные времена, когда единственным местом, где можно было посмотреть голливудское кино был 1 канал и это был дисней по пятницам. Впечатления были незабываемые. Фильм один из любимых, пересматриваю частенько.
Смертельное оружие / Lethal Weapon Год выпуска: 1987
Производство: США
Жанр: боевик, триллер, комедия, криминал
Продолжительность: 01:49:37
Перевод 1: Профессиональный (дублированный) Мост Видео
Перевод 2: Профессиональный (дублированный) Варус Видео
Перевод 3: Профессиональный (многоголосый закадровый) Премьер Видео Фильм
Перевод 4: Профессиональный (многоголосый закадровый) Киномания
Перевод 5: Профессиональный (многоголосый закадровый) ОРТ
Перевод 6: Профессиональный (многоголосый закадровый) РТР
Перевод:7: Авторский (одноголосый закадровый) Андрей Гаврилов (новый)
Перевод 8: Авторский (одноголосый закадровый) Андрей Гаврилов (с Режиссерки)
Перевод 9: Авторский (одноголосый закадровый) Андрей Гаврилов (старый с VHS)
Перевод 10: Авторский (одноголосый закадровый) Василий Горчаков (новый)
Перевод 11: Авторский (одноголосый закадровый) Василий Горчаков (старый с VHS)
Перевод 12: Авторский (одноголосый закадровый) Юрий Живов
Перевод 13: Авторский (одноголосый закадровый) Алексей Михалёв
Перевод 14: Авторский (одноголосый закадровый) Леонид Володарский (новый)
Перевод 15: Авторский (одноголосый закадровый) Леонид Володарский (старый с VHS)
Перевод 16: Авторский (одноголосый закадровый) Григорий Либергал
Режисёр: Ричард Доннер / Richard Donner
В ролях: Мэл Гибсон, Дэнни Гловер, Гари Бьюзи, Митч Райан, Том Аткинс, Дарлен Лав, Трэйси Вульф, Джеки Суонсон, Дэймон Хайнс
Эбони Смит, Bill Kalmenson, Lycia Naff, Патрик Камерон, Дон Гордон, Джимми Ф. Скэггз, Jason Ronard, Blackie Dammett, Гэйл Боуман, Robert Fol,
Сэльма Арчерд, Ричард Б. Уайтакер
Описание: Обаяние этого вечного приключенческого сюжета о паре полицейских - в великолепной игре Гибсона и Гловера. Первый - слегка чокнутый
смельчак Риггз, которому из-за его легендарного вьетнамского прошлого и не менее легендарного настоящего дали уважительную кличку «смертельное оружие».
Его чернокожий напарник Мертаф - человек куда более земной, обремененный семьей и предрассудками.
КиноПоиск,IMDb
Формат: MKV
Видеокодек: H.264
Аудиокодек: AC3
Видео: 1280x720; 23.976 fps; 5 430 Kbps, 0.246 bt/px
Аудио 01: AC3, 5.1ch, 48 kHz, 640 kbps - Мост Видео
Аудио 02: AC3, 2.0ch, 48 kHz, 256 kbps - Варус Видео
Аудио 03: AC3, 5.1ch, 48 kHz, 448kbps - Премьер Видео Фильм
Аудио 04: AC3, 5.1ch, 48 kHz, 384kbps – Киномания
Аудио 05: AC3, 2.0ch, 48 kHz, 192kbps - ОРТ
Аудио 06: AC3, 2.0ch, 48 kHz, 192kbps – РТР
Аудио 07: AC3, 5.1ch, 48 kHz, 448kbps – Гаврилов (новый)
Аудио 08: AC3, 5.1ch, 48 kHz, 448kbps - Гаврилов (с режиссерской версии)
Аудио 09: AC3, 2.0ch, 48 kHz, 192kbps – Гаврилов (с VHS)
Аудио 10: AC3, 5.1ch, 48 kHz, 448kbps - Горчаков
Аудио 11: AC3, 2.0ch, 48 kHz, 192kbps - Горчаков (с VHS)
Аудио 12: AC3, 5.1ch, 48 kHz, 448kbps - Живов
Аудио 13: AC3, 5.1ch, 48 kHz, 448kbps - Михалёв
Аудио 14: AC3, 5.1ch, 48 kHz, 448kbps - Володарский,
Аудио 15: AC3, 2.0ch, 48 kHz, 192kbps - Володарский с VHS
Аудио 16: AC3, 5.1ch, 48 kHz, 448kbps - Либергал
General
Unique ID : 228380874750177671970809173698328063583 (0xABD08E797310420984B1F31E49B6EE5F)
Complete name : G:\На пиратку\__НА ПИРАТКУ HD\Смертельное оружие. Квадрология (Lethal Weapon, 1987-1998, BDRip, 720)\Смертельное оружие (Lethal Weapon, 1987, BDRip, 720) коллекция переводов.mkv
Format : Matroska
Format version : Version 2
File size : 8.62 GiB
Duration : 1h 49mn
Overall bit rate : 11.3 Mbps
Movie name : rip by Gross
Encoded date : UTC 2014-08-23 09:51:33
Writing application : mkvmerge v4.7.0 ('Just Like You Imagined') сборка от Apr 21 2011 01:13:14
Writing library : libebml v1.2.0 + libmatroska v1.1.0
Attachment : Yes
Video
ID : 1
Format : AVC
Format/Info : Advanced Video Codec
Format profile : [email protected]
Format settings, CABAC : Yes
Format settings, ReFrames : 9 frames
Codec ID : V_MPEG4/ISO/AVC
Duration : 1h 49mn
Nominal bit rate : 5 430 Kbps
Width : 1 280 pixels
Height : 720 pixels
Display aspect ratio : 16:9
Frame rate mode : Constant
Frame rate : 23.976 fps
Color space : YUV
Chroma subsampling : 4:2:0
Bit depth : 8 bits
Scan type : Progressive
Bits/(Pixel*Frame) : 0.246
Writing library : x264 core 107 r1745+311 2317302
Encoding settings : cabac=1 / ref=9 / deblock=1:-3:-3 / analyse=0x3:0x133 / me=umh / subme=9 / psy=1 / fade_compensate=0.00 / psy_rd=1.00:0.00 / mixed_ref=1 / me_range=32 / chroma_me=1 / trellis=2 / 8x8dct=1 / cqm=0 / deadzone=21,11 / fast_pskip=0 / chroma_qp_offset=-2 / threads=3 / sliced_threads=0 / nr=0 / decimate=0 / interlaced=0 / constrained_intra=0 / fgo=0 / bframes=8 / b_pyramid=2 / b_adapt=2 / b_bias=0 / direct=3 / weightb=1 / open_gop=0 / weightp=2 / keyint=250 / keyint_min=23 / scenecut=40 / intra_refresh=0 / rc_lookahead=60 / rc=2pass / mbtree=1 / bitrate=5430 / ratetol=1.0 / qcomp=0.60 / qpmin=10 / qpmax=51 / qpstep=4 / cplxblur=20.0 / qblur=0.5 / ip_ratio=1.40 / aq=1:1.00
Language : English
Default : No
Forced : No
Audio #1
ID : 2
Format : AC-3
Format/Info : Audio Coding 3
Mode extension : CM (complete main)
Format settings, Endianness : Big
Codec ID : A_AC3
Duration : 1h 49mn
Bit rate mode : Constant
Bit rate : 640 Kbps
Channel count : 6 channels
Channel positions : Front: L C R, Side: L R, LFE
Sampling rate : 48.0 KHz
Bit depth : 16 bits
Compression mode : Lossy
Stream size : 502 MiB (6%)
Title : dub (Мост Видео)
Language : Russian
Default : Yes
Forced : No
Audio #2
ID : 3
Format : AC-3
Format/Info : Audio Coding 3
Mode extension : CM (complete main)
Format settings, Endianness : Big
Codec ID : A_AC3
Duration : 1h 49mn
Bit rate mode : Constant
Bit rate : 256 Kbps
Channel count : 2 channels
Channel positions : Front: L R
Sampling rate : 48.0 KHz
Bit depth : 16 bits
Compression mode : Lossy
Stream size : 201 MiB (2%)
Title : dub (Варус видео)
Language : Russian
Default : No
Forced : No
Audio #3
ID : 4
Format : AC-3
Format/Info : Audio Coding 3
Mode extension : CM (complete main)
Format settings, Endianness : Big
Codec ID : A_AC3
Duration : 1h 49mn
Bit rate mode : Constant
Bit rate : 448 Kbps
Channel count : 6 channels
Channel positions : Front: L C R, Side: L R, LFE
Sampling rate : 48.0 KHz
Bit depth : 16 bits
Compression mode : Lossy
Stream size : 351 MiB (4%)
Title : pm (Премьер Видео фильм)
Language : Russian
Default : No
Forced : No
Audio #4
ID : 5
Format : AC-3
Format/Info : Audio Coding 3
Mode extension : CM (complete main)
Format settings, Endianness : Big
Codec ID : A_AC3
Duration : 1h 49mn
Bit rate mode : Constant
Bit rate : 384 Kbps
Channel count : 6 channels
Channel positions : Front: L C R, Side: L R, LFE
Sampling rate : 48.0 KHz
Bit depth : 16 bits
Compression mode : Lossy
Stream size : 301 MiB (3%)
Title : pm (Kinomaniya)
Language : Russian
Default : No
Forced : No
Audio #5
ID : 6
Format : AC-3
Format/Info : Audio Coding 3
Mode extension : CM (complete main)
Format settings, Endianness : Big
Codec ID : A_AC3
Duration : 1h 49mn
Bit rate mode : Constant
Bit rate : 192 Kbps
Channel count : 2 channels
Channel positions : Front: L R
Sampling rate : 48.0 KHz
Bit depth : 16 bits
Compression mode : Lossy
Stream size : 151 MiB (2%)
Title : pm (OPT)
Language : Russian
Default : No
Forced : No
Audio #6
ID : 7
Format : AC-3
Format/Info : Audio Coding 3
Mode extension : CM (complete main)
Format settings, Endianness : Big
Codec ID : A_AC3
Duration : 1h 49mn
Bit rate mode : Constant
Bit rate : 192 Kbps
Channel count : 2 channels
Channel positions : Front: L R
Sampling rate : 48.0 KHz
Bit depth : 16 bits
Compression mode : Lossy
Stream size : 151 MiB (2%)
Title : pm (PTP)
Language : Russian
Default : No
Forced : No
Audio #7
ID : 8
Format : AC-3
Format/Info : Audio Coding 3
Codec ID : A_AC3
Duration : 1h 49mn
Channel count : 6 channels
Sampling rate : 48.0 KHz
Compression mode : Lossy
Title : A1 (Gavrilov)
Language : Russian
Default : No
Forced : No
Audio #8
ID : 9
Format : AC-3
Format/Info : Audio Coding 3
Codec ID : A_AC3
Duration : 1h 49mn
Channel count : 6 channels
Sampling rate : 48.0 KHz
Compression mode : Lossy
Title : A1 (Gavrilov) in Directed cut
Language : Russian
Default : No
Forced : No
Audio #9
ID : 10
Format : AC-3
Format/Info : Audio Coding 3
Codec ID : A_AC3
Duration : 1h 49mn
Channel count : 2 channels
Sampling rate : 48.0 KHz
Compression mode : Lossy
Title : A1 (Gavrilov) VHS
Language : Russian
Default : No
Forced : No
Audio #10
ID : 11
Format : AC-3
Format/Info : Audio Coding 3
Codec ID : A_AC3
Duration : 1h 49mn
Channel count : 6 channels
Sampling rate : 48.0 KHz
Compression mode : Lossy
Title : A1 (Gorchakov)
Language : Russian
Default : No
Forced : No
Audio #11
ID : 12
Format : AC-3
Format/Info : Audio Coding 3
Codec ID : A_AC3
Duration : 1h 49mn
Channel count : 2 channels
Sampling rate : 48.0 KHz
Compression mode : Lossy
Title : A1 (Gorchakov) VHS
Language : Russian
Default : No
Forced : No
Audio #12
ID : 13
Format : AC-3
Format/Info : Audio Coding 3
Codec ID : A_AC3
Duration : 1h 49mn
Channel count : 6 channels
Sampling rate : 48.0 KHz
Compression mode : Lossy
Title : A1 (Jivov)
Language : Russian
Default : No
Forced : No
Audio #13
ID : 14
Format : AC-3
Format/Info : Audio Coding 3
Codec ID : A_AC3
Duration : 1h 49mn
Channel count : 6 channels
Sampling rate : 48.0 KHz
Compression mode : Lossy
Title : A1 (Mixalev)
Language : Russian
Default : No
Forced : No
Audio #14
ID : 15
Format : AC-3
Format/Info : Audio Coding 3
Codec ID : A_AC3
Duration : 1h 49mn
Channel count : 6 channels
Sampling rate : 48.0 KHz
Compression mode : Lossy
Title : A1 (Volodarsky)
Language : Russian
Default : No
Forced : No
Audio #15
ID : 16
Format : AC-3
Format/Info : Audio Coding 3
Codec ID : A_AC3
Duration : 1h 49mn
Channel count : 2 channels
Sampling rate : 48.0 KHz
Compression mode : Lossy
Title : A1 (Volodarsky) VHS
Language : Russian
Default : No
Forced : No
Audio #16
ID : 17
Format : AC-3
Format/Info : Audio Coding 3
Codec ID : A_AC3
Duration : 1h 49mn
Channel count : 6 channels
Sampling rate : 48.0 KHz
Compression mode : Lossy
Title : A1 (Libergal)
Language : Russian
Default : No
Forced : No
Text #1
ID : 18
Format : UTF-8
Codec ID : S_TEXT/UTF8
Codec ID/Info : UTF-8 Plain Text
Language : Russian
Default : Yes
Forced : No
Text #2
ID : 19
Format : UTF-8
Codec ID : S_TEXT/UTF8
Codec ID/Info : UTF-8 Plain Text
Language : English
Default : No
Forced : No
Menu
00:00:00.000 : :Chapter 01
00:04:26.099 : :Chapter 02
00:11:13.839 : :Chapter 03
00:14:53.601 : :Chapter 04
00:18:13.300 : :Chapter 05
00:23:05.008 : :Chapter 06
00:25:58.390 : :Chapter 07
00:28:36.047 : :Chapter 08
00:36:45.786 : :Chapter 09
00:42:59.577 : :Chapter 10
00:54:12.707 : :Chapter 11
00:57:39.205 : :Chapter 12
01:03:44.237 : :Chapter 13
01:08:10.294 : :Chapter 14
01:10:25.930 : :Chapter 15
01:15:17.513 : :Chapter 16
01:23:47.522 : :Chapter 17
01:29:30.365 : :Chapter 18
01:36:55.476 : :Chapter 19
01:38:54.929 : :Chapter 20
01:43:03.010 : :Chapter 21
01:43:48.222 : :Chapter 22
01:44:45.904 : :Chapter 23
Смертельное оружие 2 / Lethal Weapon 2 Год выпуска: 1989
Производство: США
Жанр: боевик, триллер, комедия, криминал
Продолжительность: 01:54:27
Перевод 1: Профессиональный (дублированный) Мост Видео
Перевод 2: Профессиональный (дублированный) Варус Видео
Перевод 3: Профессиональный (многоголосый закадровый) Киномания
Перевод 4: Профессиональный (многоголосый закадровый) Премьер Видео Фильм
Перевод 5: Профессиональный (многоголосый закадровый) ОРТ
Перевод 6: Профессиональный (многоголосый закадровый) РТР
Перевод 7: Профессиональный (многоголосый закадровый) НТВ
Перевод 8: Авторский (одноголосый закадровый) Андрей Гаврилов
Перевод 9: Авторский (одноголосый закадровый) Алексей Михалёв
Перевод 10: Авторский (одноголосый закадровый) Леонид Володарский
Перевод 11: Авторский (одноголосый закадровый) Юрий Живов
Режисёр: Ричард Доннер / Richard Donner
В ролях: Мэл Гибсон, Дэнни Гловер, Джо Пеши, Джосс Экланд, Деррик О`Коннор, Пэтси Кенсит, Дарлен Лав, Трэйси Вульф, Steve Kahan, Дженет Голдштейн, Дин Норрис, Juney Smith, Нестор Серрано, Филип Суриано, Гранд Л. Буш, Тони Каррейро, Дэймон Хайнс
Описание: Зрителя вновь ждет встреча с неустанно сражающейся с преступниками парочкой друзей-полицейских (Мел Гибсон и Дэнни Гловер).
Спасая собственную жизнь и жизнь главного свидетеля (Джо Пеши), они вынуждены схватиться с шайкой южноафриканских контрабандистов.
КиноПоиск,IMDb
Формат: MKV
Видеокодек: H.264
Аудиокодек: AC3
Видео: 1280x534; 23.976 fps; 5 106 Kbps, 0.312 bt/px
Аудио 1: AC3, 5.1, 48 kHz, 640 kbps - Мост Видео
Аудио 2: AC3, 2.0, 48 kHz, 192 kbps - Варус Видео
Аудио 3: AC3, 5.1, 48 kHz, 384 kbps - Киномания
Аудио 4: AC3, 5.1, 48 kHz, 448 kbps - Премьер
Аудио 5: AC3, 2.0, 48 kHz, 192 kbps - ОРТ
Аудио 6: AC3, 2.0, 48 kHz, 192 kbps – РТР
Аудио 7: AC3, 2.0, 48 kHz, 192 kbps - НТВ
Аудио 8: AC3, 5.1, 48 kHz, 448 kbps - Гаврилов
Аудио 9: AC3, 5.1, 48 kHz, 448 kbps - Михалёв
Аудио 10: AC3, 2.0, 48 kHz, 192 kbps - Володарский
Аудио 11: AC3, 5.1, 48 kHz, 448 kbps - Живов
General
Unique ID : 226682925233086307869754763308573048965 (0xAA898B198F70818083BD34CC9F52C085)
Complete name : G:\На пиратку\__НА ПИРАТКУ HD\Смертельное оружие. Квадрология (Lethal Weapon, 1987-1998, BDRip, 720)\Смертельное оружие 2 (Lethal Weapon 2, 1989, BDRip, 720) коллекция переводов.mkv
Format : Matroska
Format version : Version 2
File size : 7.10 GiB
Duration : 1h 54mn
Overall bit rate : 8 884 Kbps
Encoded date : UTC 2014-03-24 19:07:00
Writing application : mkvmerge v4.7.0 ('Just Like You Imagined') сборка от Apr 21 2011 01:13:14
Writing library : libebml v1.2.0 + libmatroska v1.1.0
Video
ID : 1
Format : AVC
Format/Info : Advanced Video Codec
Format profile : [email protected]
Format settings, CABAC : Yes
Format settings, ReFrames : 9 frames
Codec ID : V_MPEG4/ISO/AVC
Duration : 1h 54mn
Nominal bit rate : 5 106 Kbps
Width : 1 280 pixels
Height : 534 pixels
Display aspect ratio : 2.40:1
Frame rate mode : Constant
Frame rate : 23.976 fps
Color space : YUV
Chroma subsampling : 4:2:0
Bit depth : 8 bits
Scan type : Progressive
Bits/(Pixel*Frame) : 0.312
Writing library : x264 core 107 r1745+311 2317302
Encoding settings : cabac=1 / ref=9 / deblock=1:-3:-3 / analyse=0x3:0x133 / me=umh / subme=9 / psy=1 / fade_compensate=0.00 / psy_rd=1.00:0.00 / mixed_ref=1 / me_range=32 / chroma_me=1 / trellis=2 / 8x8dct=1 / cqm=0 / deadzone=21,11 / fast_pskip=0 / chroma_qp_offset=-2 / threads=3 / sliced_threads=0 / nr=0 / decimate=0 / interlaced=0 / constrained_intra=0 / fgo=0 / bframes=8 / b_pyramid=2 / b_adapt=2 / b_bias=0 / direct=3 / weightb=1 / open_gop=0 / weightp=2 / keyint=250 / keyint_min=23 / scenecut=40 / intra_refresh=0 / rc_lookahead=60 / rc=2pass / mbtree=1 / bitrate=5106 / ratetol=1.0 / qcomp=0.60 / qpmin=10 / qpmax=51 / qpstep=4 / cplxblur=20.0 / qblur=0.5 / ip_ratio=1.40 / aq=1:1.00
Language : English
Default : No
Forced : No
Audio #1
ID : 2
Format : AC-3
Format/Info : Audio Coding 3
Mode extension : CM (complete main)
Format settings, Endianness : Big
Codec ID : A_AC3
Duration : 1h 54mn
Bit rate mode : Constant
Bit rate : 640 Kbps
Channel count : 6 channels
Channel positions : Front: L C R, Side: L R, LFE
Sampling rate : 48.0 KHz
Bit depth : 16 bits
Compression mode : Lossy
Stream size : 524 MiB (7%)
Title : dub (BD CEE)
Language : Russian
Default : Yes
Forced : No
Audio #2
ID : 3
Format : AC-3
Format/Info : Audio Coding 3
Mode extension : CM (complete main)
Format settings, Endianness : Big
Codec ID : A_AC3
Duration : 1h 54mn
Bit rate mode : Constant
Bit rate : 192 Kbps
Channel count : 2 channels
Channel positions : Front: L R
Sampling rate : 48.0 KHz
Bit depth : 16 bits
Compression mode : Lossy
Stream size : 157 MiB (2%)
Title : dub (Varus Video)
Language : Russian
Default : No
Forced : No
Audio #3
ID : 4
Format : AC-3
Format/Info : Audio Coding 3
Mode extension : CM (complete main)
Format settings, Endianness : Big
Codec ID : A_AC3
Duration : 1h 54mn
Bit rate mode : Constant
Bit rate : 384 Kbps
Channel count : 6 channels
Channel positions : Front: L C R, Side: L R, LFE
Sampling rate : 48.0 KHz
Bit depth : 16 bits
Compression mode : Lossy
Stream size : 314 MiB (4%)
Title : pm (Kinomaniya)
Language : Russian
Default : No
Forced : No
Audio #4
ID : 5
Format : AC-3
Format/Info : Audio Coding 3
Mode extension : CM (complete main)
Format settings, Endianness : Big
Codec ID : A_AC3
Duration : 1h 54mn
Bit rate mode : Constant
Bit rate : 448 Kbps
Channel count : 6 channels
Channel positions : Front: L C R, Side: L R, LFE
Sampling rate : 48.0 KHz
Bit depth : 16 bits
Compression mode : Lossy
Stream size : 367 MiB (5%)
Title : pm (Premer Video)
Language : Russian
Default : No
Forced : No
Audio #5
ID : 6
Format : AC-3
Format/Info : Audio Coding 3
Mode extension : CM (complete main)
Format settings, Endianness : Big
Codec ID : A_AC3
Duration : 1h 54mn
Bit rate mode : Constant
Bit rate : 192 Kbps
Channel count : 2 channels
Channel positions : Front: L R
Sampling rate : 48.0 KHz
Bit depth : 16 bits
Compression mode : Lossy
Stream size : 157 MiB (2%)
Title : pm (ORT)
Language : Russian
Default : No
Forced : No
Audio #6
ID : 7
Format : AC-3
Format/Info : Audio Coding 3
Mode extension : CM (complete main)
Format settings, Endianness : Big
Codec ID : A_AC3
Duration : 1h 54mn
Bit rate mode : Constant
Bit rate : 192 Kbps
Channel count : 2 channels
Channel positions : Front: L R
Sampling rate : 48.0 KHz
Bit depth : 16 bits
Compression mode : Lossy
Stream size : 157 MiB (2%)
Title : pm (PTP)
Language : Russian
Default : No
Forced : No
Audio #7
ID : 8
Format : AC-3
Format/Info : Audio Coding 3
Codec ID : A_AC3
Duration : 1h 54mn
Channel count : 2 channels
Sampling rate : 48.0 KHz
Compression mode : Lossy
Title : pm (HTB)
Language : Russian
Default : No
Forced : No
Audio #8
ID : 9
Format : AC-3
Format/Info : Audio Coding 3
Codec ID : A_AC3
Duration : 1h 54mn
Channel count : 6 channels
Sampling rate : 48.0 KHz
Compression mode : Lossy
Title : A1 (Gavrilov)
Language : Russian
Default : No
Forced : No
Audio #9
ID : 10
Format : AC-3
Format/Info : Audio Coding 3
Codec ID : A_AC3
Duration : 1h 54mn
Channel count : 6 channels
Sampling rate : 48.0 KHz
Compression mode : Lossy
Title : A1 (Mixalev)
Language : Russian
Default : No
Forced : No
Audio #10
ID : 11
Format : AC-3
Format/Info : Audio Coding 3
Codec ID : A_AC3
Duration : 1h 54mn
Channel count : 2 channels
Sampling rate : 48.0 KHz
Compression mode : Lossy
Title : A1 (Volodarskiy)
Language : Russian
Default : No
Forced : No
Audio #11
ID : 12
Format : AC-3
Format/Info : Audio Coding 3
Codec ID : A_AC3
Duration : 1h 54mn
Channel count : 6 channels
Sampling rate : 48.0 KHz
Compression mode : Lossy
Title : A1 (Jivov)
Language : Russian
Default : No
Forced : No
Text #1
ID : 13
Format : UTF-8
Codec ID : S_TEXT/UTF8
Codec ID/Info : UTF-8 Plain Text
Language : Russian
Default : Yes
Forced : No
Text #2
ID : 14
Format : UTF-8
Codec ID : S_TEXT/UTF8
Codec ID/Info : UTF-8 Plain Text
Language : English
Default : No
Forced : No
Menu
00:00:00.000 : :Chapter 01
00:07:51.387 : :Chapter 02
00:10:00.266 : :Chapter 03
00:11:20.262 : :Chapter 04
00:12:58.903 : :Chapter 05
00:16:26.110 : :Chapter 06
00:18:21.141 : :Chapter 07
00:21:42.009 : :Chapter 08
00:23:42.003 : :Chapter 09
00:25:56.846 : :Chapter 10
00:30:25.156 : :Chapter 11
00:33:51.821 : :Chapter 12
00:35:59.448 : :Chapter 13
00:39:39.794 : :Chapter 14
00:42:38.430 : :Chapter 15
00:43:58.927 : :Chapter 16
00:45:34.064 : :Chapter 17
00:47:12.120 : :Chapter 18
00:48:32.409 : :Chapter 19
00:50:32.404 : :Chapter 20
00:51:44.476 : :Chapter 21
00:55:07.220 : :Chapter 22
01:00:13.526 : :Chapter 23
01:06:37.410 : :Chapter 24
01:07:56.489 : :Chapter 25
01:12:04.111 : :Chapter 26
01:15:03.540 : :Chapter 27
01:19:24.926 : :Chapter 28
01:24:13.214 : :Chapter 29
01:26:41.029 : :Chapter 30
01:28:06.364 : :Chapter 31
01:30:30.007 : :Chapter 32
01:33:54.629 : :Chapter 33
01:37:22.086 : :Chapter 34
01:41:08.520 : :Chapter 35
01:43:15.147 : :Chapter 36
01:45:36.121 : :Chapter 37
01:46:36.598 : :Chapter 38
01:49:30.188 : :Chapter 39
Смертельное оружие 3 / Lethal Weapon 3 Год выпуска: 1992
Производство: США
Жанр: боевик, триллер, комедия, криминал
Продолжительность: 01:57:53
Перевод 1: Профессиональный (дублированный) МостВидео
Перевод 2: Профессиональный (дублированный) Варус (Ленфильм)
Перевод 3: Профессиональный (многоголосый) Киномания
Перевод 4: Профессиональный (многоголосый) РТР
Перевод 5: Профессиональный (многоголосый) НТВ
Перевод 6: Авторский (одноголосый закадровый) Андрей Гаврилов
Перевод 7: Авторский (одноголосый закадровый) Василий Горчаков (со вставками Пронина)
Режисёр:Ричард Доннер / Richard Donner
В ролях: Мэл Гибсон, Дэнни Гловер, Джо Пеши, Рене Руссо, Стюарт Уилсон, Стив Кэхэн, Дарлен Лав, Трэйси Вульф, Дэймон Хайнс, Эбони Смит
Описание: Третий фильм о неустрашимом полицейском Риггсе. На этот раз Мартин и его напарник Роджер сталкиваются с гангстерами, похищающими оружие со склада полиции.
Преступную группу, за которой тянется длинный кровавый след, возглавляет бывший сержант Джек Тревис. Найти улики против «грязного» полицейского напарникам
помогает Лорна Коул - решительная женщина-полицейский, которая не останавливается перед лицом опасности и уверенно вступает в схватку с противниками...
КиноПоиск,IMDb
Формат: MKV
Видеокодек: H.264
Аудиокодек: AC3, DTS
Видео: 1280x530; 23.976 fps; 4 915 Kbps, 0.302
Аудио 1: AC3, 5.1, 48 kHz, 640 kbps - Мост Видео
Аудио 2: AC3, 2.0, 48 kHz, 192 kbps - Варус (Ленфильм)
Аудио 3: AC3, 5.1, 48 kHz, 384 kbps - Киномания
Аудио 4: AC3, 2.0, 44 kHz, 192 kbps - РТР
Аудио 5: AC3, 2.0, 44 kHz, 192 kbps - НТВ
Аудио 6: DTS, 5.1, 48 kHz, 755 kbps - Гаврилов
Аудио 7: AC3, 2.0, 48 kHz, 192 kbps - Горчаков (со вставками Пронина)
General
Unique ID : 228082722452015777866214893955759222821 (0xAB97226E615C9C0496962DC98C503025)
Complete name : G:\На пиратку\__НА ПИРАТКУ HD\Смертельное оружие. Квадрология (Lethal Weapon, 1987-1998, BDRip, 720)\Смертельное оружие 3 (Lethal Weapon 3, 1992, BDRip, 720) коллекция переводов.mkv
Format : Matroska
Format version : Version 2
File size : 6.15 GiB
Duration : 1h 57mn
Overall bit rate : 7 462 Kbps
Movie name : Smertelnoe.oruzhie.3.1992.x264.BDRip.720p.Kinozal.TV-HD
Encoded date : UTC 2013-12-20 06:49:36
Writing application : mkvmerge v4.7.0 ('Just Like You Imagined') сборка от Apr 21 2011 01:13:14
Writing library : libebml v1.2.0 + libmatroska v1.1.0
Video
ID : 1
Format : AVC
Format/Info : Advanced Video Codec
Format profile : [email protected]
Format settings, CABAC : Yes
Format settings, ReFrames : 9 frames
Muxing mode : Header stripping
Codec ID : V_MPEG4/ISO/AVC
Duration : 1h 57mn
Nominal bit rate : 4 915 Kbps
Width : 1 280 pixels
Height : 530 pixels
Display aspect ratio : 2.40:1
Frame rate mode : Constant
Frame rate : 23.976 fps
Color space : YUV
Chroma subsampling : 4:2:0
Bit depth : 8 bits
Scan type : Progressive
Bits/(Pixel*Frame) : 0.302
Writing library : x264 core 107 r1745+311 2317302
Encoding settings : cabac=1 / ref=9 / deblock=1:-3:-3 / analyse=0x3:0x133 / me=umh / subme=9 / psy=1 / fade_compensate=0.00 / psy_rd=1.00:0.00 / mixed_ref=1 / me_range=32 / chroma_me=1 / trellis=2 / 8x8dct=1 / cqm=0 / deadzone=21,11 / fast_pskip=0 / chroma_qp_offset=-2 / threads=3 / sliced_threads=0 / nr=0 / decimate=0 / interlaced=0 / constrained_intra=0 / fgo=0 / bframes=8 / b_pyramid=2 / b_adapt=2 / b_bias=0 / direct=3 / weightb=1 / open_gop=0 / weightp=2 / keyint=250 / keyint_min=23 / scenecut=40 / intra_refresh=0 / rc_lookahead=60 / rc=2pass / mbtree=1 / bitrate=4915 / ratetol=1.0 / qcomp=0.60 / qpmin=10 / qpmax=51 / qpstep=4 / cplxblur=20.0 / qblur=0.5 / ip_ratio=1.40 / aq=1:1.00
Language : English
Default : No
Forced : No
Audio #1
ID : 2
Format : AC-3
Format/Info : Audio Coding 3
Mode extension : CM (complete main)
Format settings, Endianness : Big
Muxing mode : Header stripping
Codec ID : A_AC3
Duration : 1h 57mn
Bit rate mode : Constant
Bit rate : 640 Kbps
Channel count : 6 channels
Channel positions : Front: L C R, Side: L R, LFE
Sampling rate : 48.0 KHz
Bit depth : 16 bits
Compression mode : Lossy
Stream size : 540 MiB (9%)
Title : DUB CEE
Language : Russian
Default : Yes
Forced : No
Audio #2
ID : 3
Format : AC-3
Format/Info : Audio Coding 3
Mode extension : CM (complete main)
Format settings, Endianness : Big
Muxing mode : Header stripping
Codec ID : A_AC3
Duration : 1h 57mn
Bit rate mode : Constant
Bit rate : 192 Kbps
Channel count : 2 channels
Channel positions : Front: L R
Sampling rate : 48.0 KHz
Bit depth : 16 bits
Compression mode : Lossy
Stream size : 162 MiB (3%)
Title : DUB Varus Video
Language : Russian
Default : No
Forced : No
Audio #3
ID : 4
Format : AC-3
Format/Info : Audio Coding 3
Mode extension : CM (complete main)
Format settings, Endianness : Big
Muxing mode : Header stripping
Codec ID : A_AC3
Duration : 1h 57mn
Bit rate mode : Constant
Bit rate : 384 Kbps
Channel count : 6 channels
Channel positions : Front: L C R, Side: L R, LFE
Sampling rate : 48.0 KHz
Bit depth : 16 bits
Compression mode : Lossy
Stream size : 324 MiB (5%)
Title : MVO Kinomaniya
Language : Russian
Default : No
Forced : No
Audio #4
ID : 5
Format : AC-3
Format/Info : Audio Coding 3
Mode extension : CM (complete main)
Format settings, Endianness : Big
Muxing mode : Header stripping
Codec ID : A_AC3
Duration : 1h 57mn
Bit rate mode : Constant
Bit rate : 192 Kbps
Channel count : 2 channels
Channel positions : Front: L R
Sampling rate : 44.1 KHz
Bit depth : 16 bits
Compression mode : Lossy
Stream size : 162 MiB (3%)
Title : MVO PTP
Language : Russian
Default : No
Forced : No
Audio #5
ID : 6
Format : AC-3
Format/Info : Audio Coding 3
Mode extension : CM (complete main)
Format settings, Endianness : Big
Muxing mode : Header stripping
Codec ID : A_AC3
Duration : 1h 57mn
Bit rate mode : Constant
Bit rate : 192 Kbps
Channel count : 2 channels
Channel positions : Front: L R
Sampling rate : 44.1 KHz
Bit depth : 16 bits
Compression mode : Lossy
Stream size : 162 MiB (3%)
Title : MVO HTB
Language : Russian
Default : No
Forced : No
Audio #6
ID : 7
Format : DTS
Format/Info : Digital Theater Systems
Muxing mode : Header stripping
Codec ID : A_DTS
Duration : 1h 57mn
Channel count : 6 channels
Sampling rate : 48.0 KHz
Compression mode : Lossy
Title : AVO Gavrilov
Language : Russian
Default : No
Forced : No
Audio #7
ID : 8
Format : AC-3
Format/Info : Audio Coding 3
Mode extension : CM (complete main)
Format settings, Endianness : Big
Muxing mode : Header stripping
Codec ID : A_AC3
Duration : 1h 57mn
Bit rate mode : Constant
Bit rate : 192 Kbps
Channel count : 2 channels
Channel positions : Front: L R
Sampling rate : 48.0 KHz
Bit depth : 16 bits
Compression mode : Lossy
Stream size : 162 MiB (3%)
Title : A1 (Gorchakov) + Pronin (in Unrated cut)
Language : Russian
Default : No
Forced : No
Text #1
ID : 9
Format : UTF-8
Codec ID : S_TEXT/UTF8
Codec ID/Info : UTF-8 Plain Text
Language : Russian
Default : Yes
Forced : No
Text #2
ID : 10
Format : UTF-8
Codec ID : S_TEXT/UTF8
Codec ID/Info : UTF-8 Plain Text
Language : English
Default : No
Forced : No
Menu
00:00:00.000 : :Chapter 01
00:01:39.182 : :Chapter 02
00:07:48.676 : :Chapter 03
00:10:05.062 : :Chapter 04
00:15:11.744 : :Chapter 05
00:20:08.832 : :Chapter 06
00:22:06.450 : :Chapter 07
00:24:36.975 : :Chapter 08
00:29:16.421 : :Chapter 09
00:37:00.593 : :Chapter 10
00:43:34.028 : :Chapter 11
00:49:31.551 : :Chapter 12
00:53:44.262 : :Chapter 13
00:56:17.791 : :Chapter 14
00:58:06.483 : :Chapter 15
01:00:42.347 : :Chapter 16
01:05:49.111 : :Chapter 17
01:11:41.422 : :Chapter 18
01:14:59.745 : :Chapter 19
01:18:15.982 : :Chapter 20
01:22:29.361 : :Chapter 21
01:24:37.197 : :Chapter 22
01:27:21.945 : :Chapter 23
01:29:59.268 : :Chapter 24
01:34:44.178 : :Chapter 25
01:37:15.329 : :Chapter 26
01:42:34.606 : :Chapter 27
01:46:24.628 : :Chapter 28
01:48:26.458 : :Chapter 29
01:51:44.030 : :Chapter 30
01:57:05.018 : :Chapter 31
Смертельное оружие 4 / Lethal Weapon 4 Год выпуска:1998
Производство: США
Жанр: боевик, триллер, комедия, криминал
Продолжительность: 02:07:23
Перевод 1: Профессиональный (дублированный) Мост Видео
Перевод 2: Профессиональный (дублированный) Варус
Перевод 3: Профессиональный (многоголосый закадровый) Киномания
Перевод 4: Профессиональный (многоголосый закадровый) РТР
Перевод 5: Авторский (одноголосый закадровый) Андрей Гаврилов
Перевод 6: Авторский (одноголосый закадровый) Юрий Живов
Перевод 7: Авторский (одноголосый закадровый) Николай Антонов
Режисёр: Ричард Доннер / Richard Donner
В ролях: Мэл Гибсон, Дэнни Гловер, Джо Пеши, Рене Руссо, Стюарт Уилсон, Стив Кэхэн, Дарлен Лав, Трэйси Вульф
Описание: Главный герой Риггз ждет, как он надеется, сына от Лорны Коул, а Роджер - внука. Оба уже ощущают возраст, им дали звания капитанов,
но сердца их все еще молоды и без приключений не могут. В этом 4-м по счету фильме их дорожки случайно пересеклись с китайскими мафиози
, печатающими фальшивые деньги.
В фильме есть юмор, множество перестрелок, драк, погонь, головокружительных трюков. Взрываются бензовозы, машины, корабли садятся на мель,
Джет Ли показывает свое мастерство в восточных единоборствах.
КиноПоиск,IMDb
Формат: MKV
Видеокодек: H.264
Аудиокодек: AC3
Видео: 1280x528; 23.976 fps; 2.40:1; 4 500 Kbps
Аудио 1: AC3, 5.1, 48 kHz, 640 kbps - Мост видео
Аудио 2: AC3, 2.0, 48 kHz, 192 kbps - Варус
Аудио 3: AC3, 5.1, 44 kHz, 384 kbps - Киномания
Аудио 4: AC3, 2.0, 44 kHz, 192 kbps - РТР
Аудио 5: AC3, 2.0, 48 kHz, 192 kbps - Гаврилов
Аудио 6: AC3, 2.0, 48 kHz, 192 kbps - Живов
Аудио 7: AC3, 2.0, 48 kHz, 192 kbps - Антонов
General
Unique ID : 192582869221795668374373877338363826646 (0x90E21C88B5B88FA3A3299DAB4F5691D6)
Complete name : G:\На пиратку\__НА ПИРАТКУ HD\Смертельное оружие. Квадрология (Lethal Weapon, 1987-1998, BDRip, 720)\Смертельное оружие 4 (Lethal Weapon 4, 1998, BDRip, 720) коллекция переводов.mkv
Format : Matroska
Format version : Version 2
File size : 6.81 GiB
Duration : 2h 7mn
Overall bit rate : 7 657 Kbps
Encoded date : UTC 2014-03-24 19:20:22
Writing application : mkvmerge v4.7.0 ('Just Like You Imagined') сборка от Apr 21 2011 01:13:14
Writing library : libebml v1.2.0 + libmatroska v1.1.0
Video
ID : 1
Format : AVC
Format/Info : Advanced Video Codec
Format profile : [email protected]
Format settings, CABAC : Yes
Format settings, ReFrames : 9 frames
Codec ID : V_MPEG4/ISO/AVC
Duration : 2h 7mn
Nominal bit rate : 5 670 Kbps
Width : 1 280 pixels
Height : 534 pixels
Display aspect ratio : 2.40:1
Frame rate mode : Constant
Frame rate : 23.976 fps
Color space : YUV
Chroma subsampling : 4:2:0
Bit depth : 8 bits
Scan type : Progressive
Bits/(Pixel*Frame) : 0.346
Writing library : x264 core 107 r1745+311 2317302
Encoding settings : cabac=1 / ref=9 / deblock=1:-3:-3 / analyse=0x3:0x133 / me=umh / subme=9 / psy=1 / fade_compensate=0.00 / psy_rd=1.00:0.00 / mixed_ref=1 / me_range=32 / chroma_me=1 / trellis=2 / 8x8dct=1 / cqm=0 / deadzone=21,11 / fast_pskip=0 / chroma_qp_offset=-2 / threads=12 / sliced_threads=0 / nr=0 / decimate=0 / interlaced=0 / constrained_intra=0 / fgo=0 / bframes=8 / b_pyramid=2 / b_adapt=2 / b_bias=0 / direct=3 / weightb=1 / open_gop=0 / weightp=2 / keyint=250 / keyint_min=23 / scenecut=40 / intra_refresh=0 / rc_lookahead=60 / rc=2pass / mbtree=1 / bitrate=5670 / ratetol=1.0 / qcomp=0.60 / qpmin=10 / qpmax=51 / qpstep=4 / cplxblur=20.0 / qblur=0.5 / ip_ratio=1.40 / aq=1:1.00
Language : English
Default : No
Forced : No
Audio #1
ID : 2
Format : AC-3
Format/Info : Audio Coding 3
Mode extension : CM (complete main)
Format settings, Endianness : Big
Codec ID : A_AC3
Duration : 2h 7mn
Bit rate mode : Constant
Bit rate : 640 Kbps
Channel count : 6 channels
Channel positions : Front: L C R, Side: L R, LFE
Sampling rate : 48.0 KHz
Bit depth : 16 bits
Compression mode : Lossy
Stream size : 583 MiB (8%)
Title : dub (BD CEE)
Language : Russian
Default : Yes
Forced : No
Audio #2
ID : 3
Format : AC-3
Format/Info : Audio Coding 3
Mode extension : CM (complete main)
Format settings, Endianness : Big
Codec ID : A_AC3
Duration : 2h 7mn
Bit rate mode : Constant
Bit rate : 192 Kbps
Channel count : 2 channels
Channel positions : Front: L R
Sampling rate : 48.0 KHz
Bit depth : 16 bits
Compression mode : Lossy
Stream size : 175 MiB (3%)
Title : dub (Varus Video)
Language : Russian
Default : No
Forced : No
Audio #3
ID : 4
Format : AC-3
Format/Info : Audio Coding 3
Mode extension : CM (complete main)
Format settings, Endianness : Big
Codec ID : A_AC3
Duration : 2h 7mn
Bit rate mode : Constant
Bit rate : 384 Kbps
Channel count : 6 channels
Channel positions : Front: L C R, Side: L R, LFE
Sampling rate : 48.0 KHz
Bit depth : 16 bits
Compression mode : Lossy
Stream size : 350 MiB (5%)
Title : pm (Kinomaniya)
Language : Russian
Default : No
Forced : No
Audio #4
ID : 5
Format : AC-3
Format/Info : Audio Coding 3
Mode extension : CM (complete main)
Format settings, Endianness : Big
Codec ID : A_AC3
Duration : 2h 7mn
Bit rate mode : Constant
Bit rate : 192 Kbps
Channel count : 2 channels
Channel positions : Front: L R
Sampling rate : 44.1 KHz
Bit depth : 16 bits
Compression mode : Lossy
Stream size : 175 MiB (3%)
Title : pm (PTP)
Language : Russian
Default : No
Forced : No
Audio #5
ID : 6
Format : AC-3
Format/Info : Audio Coding 3
Mode extension : CM (complete main)
Format settings, Endianness : Big
Codec ID : A_AC3
Duration : 2h 7mn
Bit rate mode : Constant
Bit rate : 192 Kbps
Channel count : 2 channels
Channel positions : Front: L R
Sampling rate : 48.0 KHz
Bit depth : 16 bits
Compression mode : Lossy
Stream size : 175 MiB (3%)
Title : A1 (Gavrlov)
Language : Russian
Default : No
Forced : No
Audio #6
ID : 7
Format : AC-3
Format/Info : Audio Coding 3
Codec ID : A_AC3
Duration : 2h 7mn
Channel count : 2 channels
Sampling rate : 48.0 KHz
Compression mode : Lossy
Title : A1 (Jivov)
Language : Russian
Default : No
Forced : No
Audio #7
ID : 8
Format : AC-3
Format/Info : Audio Coding 3
Mode extension : CM (complete main)
Format settings, Endianness : Big
Codec ID : A_AC3
Duration : 2h 7mn
Bit rate mode : Constant
Bit rate : 192 Kbps
Channel count : 2 channels
Channel positions : Front: L R
Sampling rate : 48.0 KHz
Bit depth : 16 bits
Compression mode : Lossy
Stream size : 175 MiB (3%)
Title : A1 (Antonov)
Language : Russian
Default : No
Forced : No
Text #1
ID : 9
Format : UTF-8
Codec ID : S_TEXT/UTF8
Codec ID/Info : UTF-8 Plain Text
Language : Russian
Default : Yes
Forced : No
Text #2
ID : 10
Format : UTF-8
Codec ID : S_TEXT/UTF8
Codec ID/Info : UTF-8 Plain Text
Language : English
Default : No
Forced : No
Menu
00:00:00.000 : :Chapter 01
00:01:52.195 : :Chapter 02
00:03:51.606 : :Chapter 03
00:05:54.604 : :Chapter 04
00:09:47.587 : :Chapter 05
00:13:40.110 : :Chapter 06
00:15:31.931 : :Chapter 07
00:17:28.964 : :Chapter 08
00:20:32.439 : :Chapter 09
00:21:55.355 : :Chapter 10
00:25:28.109 : :Chapter 11
00:27:50.293 : :Chapter 12
00:32:20.480 : :Chapter 13
00:35:42.515 : :Chapter 14
00:38:17.962 : :Chapter 15
00:40:15.412 : :Chapter 16
00:43:04.123 : :Chapter 17
00:46:27.868 : :Chapter 18
00:49:28.507 : :Chapter 19
00:51:19.659 : :Chapter 20
00:52:14.965 : :Chapter 21
00:55:53.808 : :Chapter 22
00:58:45.396 : :Chapter 23
01:02:42.675 : :Chapter 24
01:06:32.780 : :Chapter 25
01:09:36.463 : :Chapter 26
01:11:34.206 : :Chapter 27
01:13:44.503 : :Chapter 28
01:15:37.449 : :Chapter 29
01:17:28.018 : :Chapter 30
01:20:01.505 : :Chapter 31
01:22:38.453 : :Chapter 32
01:27:29.202 : :Chapter 33
01:31:05.918 : :Chapter 34
01:33:03.035 : :Chapter 35
01:35:37.106 : :Chapter 36
01:38:03.919 : :Chapter 37
01:40:33.610 : :Chapter 38
01:43:51.475 : :Chapter 39
01:46:22.667 : :Chapter 40
01:47:29.985 : :Chapter 41
01:50:10.604 : :Chapter 42
01:53:53.368 : :Chapter 43
01:58:03.117 : :Chapter 44
02:00:15.208 : :Chapter 45
Download / Скачать

Хотите скачать бесплатно? Зарегистрируйтесь на сайте (ссылка на регистрацию). Pirat.ca - самый быстрый торрент трекер в рунете!

Как скачивать  ·   Что такое торрент  ·   Рейтинг и ограничения



Последний раз редактировалось: gross1978 (2016-03-13 23:41), всего редактировалось 3 раз(а)

FAGOT100

Штурман

6

Пост 24-Авг-2014 02:02 (спустя 3 часа)

[Q] 

Релиз супер!!!
[Профиль]  [ЛС] 

Luzhok

Легенда

Пост 19-Сен-2014 19:02 (спустя 26 дней)

[Q] 

отцы!
редко такое пишу, но...
прибавьте газу пожалста
объём большой, качаю на внешний диск
[Профиль]  [ЛС] 

gross1978 ®

7598

Пост 19-Сен-2014 19:09 (спустя 6 минут)

[Q] 

К сожалению я уже не смогу ничем помочь, обновил свой релиз дополнительными дорогами, заменил видеоряд, ХЭШ не совпадает.....
Может когда нить выложу в другом релизе, не сейчас увы, надежда только на сидов...

_________________
Употребляйте правильно слова, и вы избавите мир от половины недоразумений (Р.Декарт).
Если у Вас есть переводы в авторском, которых нет в моих раздачах и желание ими поделиться, пишите, добавим:)
[Профиль]  [ЛС] 

Luzhok

Легенда

Пост 19-Сен-2014 19:17 (спустя 8 минут)

[Q] 

gross1978,
дружище, тебе и так громадная благодарность
радуешь каждый день
качать уже некуда, винты забиты
воооот до чего жадность доводит )))
upd
сиды, кажется, меня услышали
так как в связи с относительно новыми идиотскими веяниями нельзя раскрыть статистику раздачи, не могу поблагодарить камрадов поимённо, к моему глубокому сожалению
короче, всем спасибо!
[Профиль]  [ЛС] 

gross1978 ®

7598

Пост 19-Сен-2014 20:57 (спустя 1 час 39 минут)

[Q] 

leha1975, vlad1880, Мозголом, vizual. Можете им сказать спасибо:)
И.... все еще впереди, ща на подходе еще примерно с пяток релизов, так что завалюююююююююююю
В процессе просто подкидывают дороги, уже уследить не могу, что где есть, а чего не хватает.....
Опять же не смоей скоростью такие мегагиганты раздавать, коллекций много, а вот возможности быстро раздать мало...

_________________
Употребляйте правильно слова, и вы избавите мир от половины недоразумений (Р.Декарт).
Если у Вас есть переводы в авторском, которых нет в моих раздачах и желание ими поделиться, пишите, добавим:)
[Профиль]  [ЛС] 

Luzhok

Легенда

Пост 19-Сен-2014 21:29 (спустя 32 минуты)

[Q] 

leha1975, vlad1880, Мозголом, vizual
спасибо, друзья мои
582111на подходе еще примерно с пяток релизов...
изверг ))))))
upd
и садист )))))))
в каком-то фильме было "ооо... эта сладкая боль..."
я в смысле качать уже некуда
кстати, может, это вредная практика - засовывать всякие дубляжи в раздел авторского перевода?
давай считать это моим официальным вопросом
ну, палуба-то у нас avo, так?
mvo и dvo ещё туда-сюда, но дубляжи...
я понимаю, если т.н. Советский дубляж, тут я за всецело
но если это современное позорище, то пардон, я против
дружище, если ты не против, давай это как-то обсудим в общей теме?
как начальник, перенеси, пожалуйста
[Профиль]  [ЛС] 

gross1978 ®

7598

Пост 26-Сен-2014 15:50 (спустя 6 дней)

[Q] 

Luzhok, Сразу не заметил дополнение к посту. Сорри, создал тему.

_________________
Употребляйте правильно слова, и вы избавите мир от половины недоразумений (Р.Декарт).
Если у Вас есть переводы в авторском, которых нет в моих раздачах и желание ими поделиться, пишите, добавим:)
[Профиль]  [ЛС] 

gross1978 ®

7598

Пост 27-Дек-2015 20:38 (спустя 1 год 3 месяца)

[Q] 

Глянул тему. Чота все ее бросили. Пожалуй нужно обновить, может интерес поднимется....

_________________
Употребляйте правильно слова, и вы избавите мир от половины недоразумений (Р.Декарт).
Если у Вас есть переводы в авторском, которых нет в моих раздачах и желание ими поделиться, пишите, добавим:)
[Профиль]  [ЛС] 
Показать сообщения:    
Ответить на тему

Текущее время: Сегодня 21:28

Часовой пояс: GMT + 4



Вы не можете начинать темы
Вы не можете отвечать на сообщения
Вы не можете редактировать свои сообщения
Вы не можете удалять свои сообщения
Вы не можете голосовать в опросах
Вы не можете прикреплять файлы к сообщениям
Вы не можете скачивать файлы

▼ Вниз