Уважаемый Гость!
Вы можете поддержать проект и зарегистрироваться у наших партнеров - онлайн-стратегия MyLands. При регистрации в игре Вы получите код, который сможете активировать после регистрации на pirat.ca и получить 1000 дублонов.

Ваш код:
f0fd07852eba565c39fb4a6d5ce1a0542d556597
 
     

Неудержимые. Трилогия / The Expendables. Trilogy (Сильвестр Сталлоне / Sylvester Stallone, Саймон Уэст / Simon West, Патрик Хьюз / Patrick Hughes) [2010-2014 г.г.] (боевик, BDRip, 720p] Dub (R5, Рен-ТВ) + AVO (Гаврилов, Горчаков, Володарский, Живов)

Ответить на тему
 
Автор
Сообщение

Пост 12-Сен-2014 21:39

[Q] 

gross1978

-Неудержимые. Трилогия / The Expendables. Trilogy-Релиз обновлен 25.11.2016.--Неудержимые / The Expendables
«Они спасают мир по-своему...»
-- Год выпуска: 2010
Производство: США
Жанр: боевик, триллер, приключения
Продолжительность: 01:43:27
Перевод 1: Профессиональный (полное дублирование) Лицензия
Перевод 2: Профессиональный (полное дублирование) Рен-ТВ
Перевод 3: Авторский (одноголосый закадровый) Гаврилов
Перевод 4: Авторский (одноголосый закадровый) Горчаков
Перевод 5: Авторский (одноголосый закадровый) Володарский
Перевод 6: Авторский (одноголосый закадровый) Живов (с режиссерки)
Оригинальный аудиопоток: Английский
Субитры: Русские (форсированные 2 вида, полные) Английские (2 вида)
Навигация по главам: Сохранена (главы подписаны)
Режиссер: Сильвестр Сталлоне / Sylvester Stallone
В ролях: Сильвестр Сталлоне, Джейсон Стэтхэм, Джет Ли, Дольф Лундгрен, Брюс Уиллис, Эрик Робертс, Рэнди Кутюр, Стив Остин, Арнольд Шварценеггер, Дэвид Зайас, Жизель Итье, Харизма Карпентер,Микки Рурк, Терри Крюз, Гэри Дэниелс
Описание: Отряд профессиональных наёмников и отчаянных парней во главе с Барни Россом получает непростое задание — любой ценой найти и уничтожить кровавого тирана-диктатора, нагнетающего страх на мирное население и сеющего хаос в южноамериканской стране.
Отправляясь на выполнение нелёгкой миссии, закалённые огнём и водой, прошедшие не одну войну, люди Росса попадают в самое пекло. Отныне им придётся выживать: сплотиться и достигнуть цели, либо отчаяться и погибнуть. И всё же эти храбрые, поистине невозмутимые ребята готовы реализовать даже не реализуемое. Но не всё так просто, как кажется на первый взгляд…
-
Источник/Качество: BDRip, 720p
Формат: MKV
Видео кодек: H.264
Аудио кодек: AC3
Видео: 1280x544, 23,976 кадра/сек, 6 007 Кбит/сек , 0.360 бит/кадр
Аудио #1: 48 kHz, AC3 Dolby Digital, 5.1 (L,C,R,l,r) + LFE ch, ~448 kbps – Лицензия
Аудио #2: 48 kHz, AC3 Dolby Digital, 2.0 (L,C,R,l,r) + LFE ch, ~192 kbps - Рен-ТВ
Аудио #3: 48 kHz, AC3 Dolby Digital, 5.1 (L,C,R,l,r) + LFE ch, ~448 kbps – Гаврилов
Аудио #4: 48 kHz, AC3 Dolby Digital, 5.1 (L,C,R,l,r) + LFE ch, ~448 kbps – Горчаков
Аудио #5: 48 kHz, AC3 Dolby Digital, 2.0 (L,C,R,l,r) + LFE ch, ~384 kbps - Володарский
Аудио #6: 48 kHz, AC3 Dolby Digital, 5.1 (L,C,R,l,r) + LFE ch, ~448 kbps – Живов
Аудио #7: 48 kHz, AC3 Dolby Digital, 5.1 (L,C,R,l,r) + LFE ch, ~448 kbps – Оригинал
Формат субтитров: Softsub (SRT)
General
Unique ID : 221311117927712928766516504692940663388 (0xA67EF88D2ED0ECD6826C90971CC4EA5C)
Complete name : F:\Фильмы архив\__по актерам\Сильвестр Сталлоне\Неудержимые (The Expendables, 2010-2012, BDRip, 720p)\Неудержимые (The Expendables, 2010, BDrip, 720p) 2dub-Gavrilov-Gorchakov-Volodarski-Jivov-eng.mkv
Format : Matroska
Format version : Version 2
File size : 6.51 GiB
Duration : 1h 43mn
Overall bit rate : 9 002 Kbps
Movie name : rip by Gross
Encoded date : UTC 2016-05-01 08:17:50
Writing application : mkvmerge v4.7.0 ('Just Like You Imagined') сборка от Apr 21 2011 01:13:14
Writing library : libebml v1.2.0 + libmatroska v1.1.0
Video
ID : 1
Format : AVC
Format/Info : Advanced Video Codec
Format profile : High@L4.1
Format settings, CABAC : Yes
Format settings, ReFrames : 11 frames
Codec ID : V_MPEG4/ISO/AVC
Duration : 1h 43mn
Bit rate : 6 007 Kbps
Width : 1 280 pixels
Height : 544 pixels
Display aspect ratio : 2.35:1
Frame rate mode : Constant
Frame rate : 23.976 fps
Color space : YUV
Chroma subsampling : 4:2:0
Bit depth : 8 bits
Scan type : Progressive
Bits/(Pixel*Frame) : 0.360
Stream size : 4.34 GiB (67%)
Writing library : x264 core 148 r2638kMod 7599210
Encoding settings : cabac=1 / ref=11 / deblock=1:-3:-3 / analyse=0x3:0x133 / me=umh / subme=11 / psy=1 / fade_compensate=0.00 / psy_rd=1.00:0.05 / mixed_ref=1 / me_range=32 / chroma_me=1 / trellis=2 / 8x8dct=1 / cqm=0 / deadzone=21,11 / fast_pskip=0 / chroma_qp_offset=-3 / threads=9 / lookahead_threads=2 / sliced_threads=0 / nr=0 / decimate=1 / interlaced=0 / bluray_compat=0 / constrained_intra=0 / fgo=0 / bframes=9 / b_pyramid=2 / b_adapt=2 / b_bias=0 / direct=1 / weightb=1 / open_gop=0 / weightp=2 / keyint=250 / keyint_min=23 / scenecut=40 / intra_refresh=0 / rc=crf / mbtree=0 / crf=17.0000 / qcomp=0.60 / qpmin=0 / qpmax=69 / qpstep=4 / ip_ratio=1.40 / pb_ratio=1.30 / aq=1:1.00
Language : English
Default : Yes
Forced : No
Audio #1
ID : 2
Format : AC-3
Format/Info : Audio Coding 3
Mode extension : CM (complete main)
Format settings, Endianness : Big
Codec ID : A_AC3
Duration : 1h 43mn
Bit rate mode : Constant
Bit rate : 448 Kbps
Channel(s) : 6 channels
Channel positions : Front: L C R, Side: L R, LFE
Sampling rate : 48.0 KHz
Bit depth : 16 bits
Compression mode : Lossy
Delay relative to video : 24ms
Stream size : 332 MiB (5%)
Title : dub (R5)
Language : Russian
Default : Yes
Forced : Yes
Audio #2
ID : 3
Format : AC-3
Format/Info : Audio Coding 3
Mode extension : CM (complete main)
Format settings, Endianness : Big
Codec ID : A_AC3
Duration : 1h 43mn
Bit rate mode : Constant
Bit rate : 192 Kbps
Channel(s) : 2 channels
Channel positions : Front: L R
Sampling rate : 48.0 KHz
Bit depth : 16 bits
Compression mode : Lossy
Delay relative to video : 28ms
Stream size : 142 MiB (2%)
Title : dub (RenTV)
Language : Russian
Default : No
Forced : No
Audio #3
ID : 4
Format : AC-3
Format/Info : Audio Coding 3
Mode extension : CM (complete main)
Format settings, Endianness : Big
Codec ID : A_AC3
Duration : 1h 43mn
Bit rate mode : Constant
Bit rate : 448 Kbps
Channel(s) : 6 channels
Channel positions : Front: L C R, Side: L R, LFE
Sampling rate : 48.0 KHz
Bit depth : 16 bits
Compression mode : Lossy
Delay relative to video : 24ms
Stream size : 332 MiB (5%)
Title : A1 (Gavrilov)
Language : Russian
Default : No
Forced : No
Audio #4
ID : 5
Format : AC-3
Format/Info : Audio Coding 3
Mode extension : CM (complete main)
Format settings, Endianness : Big
Codec ID : A_AC3
Duration : 1h 43mn
Bit rate mode : Constant
Bit rate : 448 Kbps
Channel(s) : 6 channels
Channel positions : Front: L C R, Side: L R, LFE
Sampling rate : 48.0 KHz
Bit depth : 16 bits
Compression mode : Lossy
Delay relative to video : 24ms
Stream size : 332 MiB (5%)
Title : A1 (Gorchakov)
Language : Russian
Default : No
Forced : No
Audio #5
ID : 6
Format : AC-3
Format/Info : Audio Coding 3
Mode extension : CM (complete main)
Format settings, Endianness : Big
Codec ID : A_AC3
Duration : 1h 43mn
Bit rate mode : Constant
Bit rate : 384 Kbps
Channel(s) : 2 channels
Channel positions : Front: L R
Sampling rate : 48.0 KHz
Bit depth : 16 bits
Compression mode : Lossy
Stream size : 284 MiB (4%)
Title : A1 (Volodarski)
Language : Russian
Default : No
Forced : No
Audio #6
ID : 7
Format : AC-3
Format/Info : Audio Coding 3
Mode extension : CM (complete main)
Format settings, Endianness : Big
Codec ID : A_AC3
Duration : 1h 43mn
Bit rate mode : Constant
Bit rate : 448 Kbps
Channel(s) : 6 channels
Channel positions : Front: L C R, Side: L R, LFE
Sampling rate : 48.0 KHz
Bit depth : 16 bits
Compression mode : Lossy
Stream size : 332 MiB (5%)
Title : A1 (Jivov)
Language : Russian
Default : No
Forced : No
Audio #7
ID : 8
Format : AC-3
Format/Info : Audio Coding 3
Mode extension : CM (complete main)
Format settings, Endianness : Big
Codec ID : A_AC3
Duration : 1h 43mn
Bit rate mode : Constant
Bit rate : 448 Kbps
Channel(s) : 6 channels
Channel positions : Front: L C R, Side: L R, LFE
Sampling rate : 48.0 KHz
Bit depth : 16 bits
Compression mode : Lossy
Delay relative to video : 24ms
Stream size : 332 MiB (5%)
Title : Original
Language : English
Default : No
Forced : No
Text #1
ID : 9
Format : UTF-8
Codec ID : S_TEXT/UTF8
Codec ID/Info : UTF-8 Plain Text
Title : forced
Language : Russian
Default : No
Forced : No
Text #2
ID : 10
Format : UTF-8
Codec ID : S_TEXT/UTF8
Codec ID/Info : UTF-8 Plain Text
Title : forsed (for Jivov) by Gross
Language : Russian
Default : No
Forced : No
Text #3
ID : 11
Format : UTF-8
Codec ID : S_TEXT/UTF8
Codec ID/Info : UTF-8 Plain Text
Title : full
Language : Russian
Default : No
Forced : No
Text #4
ID : 12
Format : UTF-8
Codec ID : S_TEXT/UTF8
Codec ID/Info : UTF-8 Plain Text
Language : English
Default : No
Forced : No
Text #5
ID : 13
Format : UTF-8
Codec ID : S_TEXT/UTF8
Codec ID/Info : UTF-8 Plain Text
Title : SDH
Language : English
Default : No
Forced : No
Menu
00:00:00.000 : en:Under Siege
00:10:41.265 : en:Take It or Leave It
00:17:33.302 : en:No Good
00:19:37.301 : en:Christmas Time
00:26:17.200 : en:The Inside
00:31:26.885 : en:Down to Business
00:36:50.082 : en:Can't Trust You
00:45:05.494 : en:Army Raid
00:47:09.785 : en:The Contact
00:55:10.557 : en:Behind Schedule
00:58:00.185 : en:I Belong Here
01:07:04.645 : en:A Statement
01:14:43.854 : en:Your Life
01:20:29.032 : en:How It Starts
01:29:35.203 : en:Kept Walking
01:31:16.804 : en:Questions
01:34:40.758 : en:My Choice
Автор рипа:
Все переводы и релизы из собственной коллекции. Исходники найдены в разное время в разных местах на этом и иных трэкерах.
Перевод Живова синхронизирован мной из режиссерской версии. Отсутствует часть перевода, в связи с различием диалогов в театральной и режиссерской версии. Они пополнены форсированными субтитрами, сделанными мной специально для этого релиза.
Версия 1-й части с русского блюра, все надписи на русском.
Всем приятного просмотра!
x264 [info]: frame I:1430 Avg QP:14.55 size:122625
x264 [info]: frame P:38130 Avg QP:15.67 size: 59201
x264 [info]: frame B:109264 Avg QP:18.53 size: 21641
x264 [info]: consecutive B-frames: 4.7% 5.7% 11.6% 22.2% 17.1% 32.4% 3.7% 0.7% 0.8% 1.2%
x264 [info]: mb I I16..4: 9.8% 77.2% 13.1%
x264 [info]: mb P I16..4: 1.1% 28.7% 1.6% P16..4: 21.7% 31.1% 12.9% 2.3% 0.1% skip: 0.5%
x264 [info]: mb B I16..4: 0.1% 4.3% 0.2% B16..8: 36.1% 28.3% 6.2% direct: 6.0% skip:18.8% L0:42.1% L1:44.3% BI:13.6%
x264 [info]: 8x8 transform intra:91.4% inter:55.1%
x264 [info]: coded y,uvDC,uvAC intra: 98.0% 93.3% 86.3% inter: 35.3% 29.4% 12.0%
x264 [info]: i16 v,h,dc,p: 6% 5% 17% 71%
x264 [info]: i8 v,h,dc,ddl,ddr,vr,hd,vl,hu: 7% 8% 14% 10% 13% 11% 12% 11% 13%
x264 [info]: i4 v,h,dc,ddl,ddr,vr,hd,vl,hu: 7% 8% 4% 10% 17% 14% 15% 12% 14%
x264 [info]: i8c dc,h,v,p: 55% 16% 11% 18%
x264 [info]: Weighted P-Frames: Y:22.3% UV:17.3%
x264 [info]: ref P L0: 45.1% 7.7% 18.8% 7.1% 5.9% 4.0% 3.7% 1.9% 1.9% 1.5% 1.6% 0.5% 0.1%
x264 [info]: ref B L0: 74.8% 10.9% 4.9% 2.8% 1.9% 1.7% 1.3% 0.8% 0.5% 0.3%
x264 [info]: ref B L1: 94.6% 5.4%
x264 [info]: kb/s:6182.89
encoded 148824 frames, 2.77 fps, 6182.89 kb/s, duration 14:56:46.75
--Неудержимые 2 / The Expendables 2
«Они вернулись, чтобы зажечь»
-- Производство: США, Millennium Films
Год выпуска: 2012 г.
Жанр: Боевик, Триллер
Продолжительность: 01:42:42
Перевод 1: Профессиональный (полное дублирование) Лицензия
Перевод 1: Авторский (одноголосый закадровый) Гаврилов
Перевод 1: Авторский (одноголосый закадровый) Горчаков
Оригинальный аудиопоток: английский
Субтитры: русские, английские
Навигация по главам: Сохранена
Режиссер: Саймон Уэст / Simon West-В ролях: Сильвестр Сталлоне, Джейсон Стэйтем, Дольф Лундгрен, Жан-Клод Ван Дамм, Терри Крюс, Арнольд Шварценеггер, Брюс Уиллис, Лиам Хемсворт, Нань Юй, Брюс Уиллис, Чак Норрис-Описание: Можно ли попробовать изменить расстановку сил в мире? Да, если вы круты как Ван Дамм, у вас есть пять тонн плутония и первоклассные наемники. Стоит ли шутить с Уиллисом, когда вы ему серьезно задолжали? Нет, даже если вы опасны как Сталлоне и у вас за спиной Неудержимые. Кого позвать на такое плевое дельце, как спасение мира? Пара проверенных ребят, Стэйтем и Норрис, явно не помешают. Пригодятся и малыш Хемсворт, и опасная красотка. Но команда будет неполной без Шварценеггера. Он реально вернулся! Все в сборе. Понеслась…
-
Качество видео: BDRip, 720р
Формат видео: MKV
Видео кодек: H.264
Аудио кодек: AC3
Видео: 1280x536, 23.976fps, 5 890 Кбит/сек, 0.358 bt/px
Аудио #1: 48 kHz, AC3 Dolby Digital, 5.1 (L,C,R,l,r) + LFE ch, ~448 kbps – Лицензия
Аудио #2: 48 kHz, AC3 Dolby Digital, 5.1 (L,C,R,l,r) + LFE ch, ~448 kbps – Гаврилов
Аудио #3: 48 kHz, AC3 Dolby Digital, 5.1 (L,C,R,l,r) + LFE ch, ~448 kbps – Горчаков
Аудио #3: 48 kHz, AC3 Dolby Digital, 5.1 (L,C,R,l,r) + LFE ch, ~448 kbps – Оригинал
General
Unique ID : 233446632409258430367344053222488415639 (0xAFA02F9C35EBDF089E914493115C1D97)
Complete name : F:\Фильмы архив\__по актерам\Сильвестр Сталлоне\Неудержимые (The Expendables, 2010-2012, BDRip, 720p)\Неудержимые 2 (The Expendables 2, 2012, BDrip, 720p) dub-Gavrilov-Gorchakov-eng.mkv
Format : Matroska
Format version : Version 2
File size : 5.62 GiB
Duration : 1h 42mn
Overall bit rate : 7 838 Kbps
Movie name : rip by Gross
Encoded date : UTC 2016-09-22 04:10:03
Writing application : mkvmerge v4.7.0 ('Just Like You Imagined') сборка от Apr 21 2011 01:13:14
Writing library : libebml v1.2.0 + libmatroska v1.1.0
Video
ID : 1
Format : AVC
Format/Info : Advanced Video Codec
Format profile : High@L4.1
Format settings, CABAC : Yes
Format settings, ReFrames : 11 frames
Codec ID : V_MPEG4/ISO/AVC
Duration : 1h 42mn
Bit rate : 5 890 Kbps
Width : 1 280 pixels
Height : 536 pixels
Display aspect ratio : 2.40:1
Frame rate mode : Constant
Frame rate : 23.976 fps
Color space : YUV
Chroma subsampling : 4:2:0
Bit depth : 8 bits
Scan type : Progressive
Bits/(Pixel*Frame) : 0.358
Stream size : 4.23 GiB (75%)
Writing library : x264 core 148 r2638kMod 7599210
Encoding settings : cabac=1 / ref=11 / deblock=1:-2:-1 / analyse=0x3:0x133 / me=umh / subme=11 / psy=1 / fade_compensate=0.00 / psy_rd=1.00:0.05 / mixed_ref=1 / me_range=32 / chroma_me=1 / trellis=2 / 8x8dct=1 / cqm=0 / deadzone=21,11 / fast_pskip=0 / chroma_qp_offset=-3 / threads=9 / lookahead_threads=2 / sliced_threads=0 / nr=0 / decimate=1 / interlaced=0 / bluray_compat=0 / constrained_intra=0 / fgo=0 / bframes=9 / b_pyramid=2 / b_adapt=2 / b_bias=0 / direct=1 / weightb=1 / open_gop=0 / weightp=2 / keyint=250 / keyint_min=23 / scenecut=40 / intra_refresh=0 / rc=crf / mbtree=0 / crf=17.0000 / qcomp=0.60 / qpmin=0 / qpmax=69 / qpstep=4 / ip_ratio=1.40 / pb_ratio=1.30 / aq=1:1.00
Language : English
Default : Yes
Forced : No
Audio #1
ID : 2
Format : AC-3
Format/Info : Audio Coding 3
Mode extension : CM (complete main)
Format settings, Endianness : Big
Codec ID : A_AC3
Duration : 1h 42mn
Bit rate mode : Constant
Bit rate : 448 Kbps
Channel(s) : 6 channels
Channel positions : Front: L C R, Side: L R, LFE
Sampling rate : 48.0 KHz
Bit depth : 16 bits
Compression mode : Lossy
Stream size : 329 MiB (6%)
Title : dub (R5)
Language : Russian
Default : Yes
Forced : Yes
Audio #2
ID : 3
Format : AC-3
Format/Info : Audio Coding 3
Mode extension : CM (complete main)
Format settings, Endianness : Big
Codec ID : A_AC3
Duration : 1h 42mn
Bit rate mode : Constant
Bit rate : 448 Kbps
Channel(s) : 6 channels
Channel positions : Front: L C R, Side: L R, LFE
Sampling rate : 48.0 KHz
Bit depth : 16 bits
Compression mode : Lossy
Delay relative to video : 24s 0ms
Stream size : 329 MiB (6%)
Title : A1 (Gavrilov)
Language : Russian
Default : No
Forced : No
Audio #3
ID : 4
Format : AC-3
Format/Info : Audio Coding 3
Mode extension : CM (complete main)
Format settings, Endianness : Big
Codec ID : A_AC3
Duration : 1h 42mn
Bit rate mode : Constant
Bit rate : 448 Kbps
Channel(s) : 6 channels
Channel positions : Front: L C R, Side: L R, LFE
Sampling rate : 48.0 KHz
Bit depth : 16 bits
Compression mode : Lossy
Stream size : 329 MiB (6%)
Title : A1 (Gorchakov)
Language : Russian
Default : No
Forced : No
Audio #4
ID : 5
Format : AC-3
Format/Info : Audio Coding 3
Mode extension : CM (complete main)
Format settings, Endianness : Big
Codec ID : A_AC3
Duration : 1h 42mn
Bit rate mode : Constant
Bit rate : 448 Kbps
Channel(s) : 6 channels
Channel positions : Front: L C R, Side: L R, LFE
Sampling rate : 48.0 KHz
Bit depth : 16 bits
Compression mode : Lossy
Stream size : 329 MiB (6%)
Title : original
Language : Russian
Default : No
Forced : No
Text #1
ID : 6
Format : UTF-8
Codec ID : S_TEXT/UTF8
Codec ID/Info : UTF-8 Plain Text
Language : Russian
Default : No
Forced : No
Text #2
ID : 7
Format : UTF-8
Codec ID : S_TEXT/UTF8
Codec ID/Info : UTF-8 Plain Text
Title : SDH
Language : English
Default : No
Forced : No
Menu
00:00:00.000 : en:Chapter 01
00:08:01.230 : en:Chapter 02
00:15:27.384 : en:Chapter 03
00:24:32.637 : en:Chapter 04
00:33:21.624 : en:Chapter 05
00:42:14.865 : en:Chapter 06
00:50:27.607 : en:Chapter 07
00:59:01.704 : en:Chapter 08
01:06:52.174 : en:Chapter 09
01:14:43.020 : en:Chapter 10
01:19:55.415 : en:Chapter 11
01:28:04.529 : en:Chapter 12
01:32:35.341 : en:Chapter 13
Автор рипа:
x264 [info]: frame I:1678 Avg QP:14.45 size:129858
x264 [info]: frame P:31800 Avg QP:15.43 size: 58706
x264 [info]: frame B:114262 Avg QP:18.13 size: 22506
x264 [info]: consecutive B-frames: 2.7% 3.0% 8.6% 12.1% 20.1% 43.7% 5.7% 1.3% 1.9% 0.9%
x264 [info]: mb I I16..4: 13.1% 72.9% 14.0%
x264 [info]: mb P I16..4: 0.8% 27.8% 1.6% P16..4: 21.1% 30.9% 14.5% 2.7% 0.2% skip: 0.4%
x264 [info]: mb B I16..4: 0.0% 4.6% 0.1% B16..8: 35.1% 28.2% 6.8% direct: 5.8% skip:19.4% L0:43.0% L1:43.9% BI:13.1%
x264 [info]: 8x8 transform intra:91.5% inter:52.2%
x264 [info]: coded y,uvDC,uvAC intra: 98.4% 90.6% 81.1% inter: 34.9% 23.3% 9.5%
x264 [info]: i16 v,h,dc,p: 5% 4% 25% 65%
x264 [info]: i8 v,h,dc,ddl,ddr,vr,hd,vl,hu: 9% 9% 18% 9% 12% 10% 11% 10% 12%
x264 [info]: i4 v,h,dc,ddl,ddr,vr,hd,vl,hu: 12% 8% 4% 10% 15% 13% 14% 11% 13%
x264 [info]: i8c dc,h,v,p: 54% 19% 12% 15%
x264 [info]: Weighted P-Frames: Y:15.8% UV:11.2%
x264 [info]: ref P L0: 42.8% 9.1% 19.3% 6.9% 6.5% 4.2% 4.0% 1.8% 2.0% 1.4% 1.6% 0.3% 0.0%
x264 [info]: ref B L0: 71.3% 11.8% 5.6% 3.3% 2.3% 2.3% 1.5% 1.0% 0.5% 0.3%
x264 [info]: ref B L1: 93.2% 6.8%
x264 [info]: kb/s:6045.25
encoded 147740 frames, 2.50 fps, 6045.25 kb/s, duration 16:25:35.50
--Неудержимые 3/ The Expendables 3-- Год выпуска: 2014
Производство: США, Lionsgate, Millennium Films
Жанр: боевик
Продолжительность: 02:11:32
Перевод 1: Профессиональный (полное дублирование) лицензия (с театралки + Есарев)
Перевод 2: Авторский (одноголосый, закадровый) Гаврилов
Перевод 3: Авторский (одноголосый, закадровый) Володарский
Перевод 4: Авторский (одноголосый, закадровый) Горчаков
Перевод 4: Авторский (одноголосый, закадровый) Есарев
Оригинальный аудиопоток: Английский
Субтитры: русские, английские
Навигация по главам: сохранена
Режиссер: Патрик Хьюз / Patrick Hughes-В ролях: Сильвестр Сталлоне, Джейсон Стэйтем, Харрисон Форд, Арнольд Шварценеггер, Мэл Гибсон, Уэсли Снайпс, Дольф Лундгрен-Описание: Барни, Кристмас и остальные члены команды сходятся лицом к лицу с Конрадом Стоунбэнксом, многие годы назад основавшем вместе с Барни команду «Неудержимых». Впоследствии Стоунбэнкс становится безжалостным торговцем оружием и тем самым превращается в человека, которого Барни было поручено убить. Или по крайней мере он сам так считал. Теперь Стоунбэнкс, один раз уже сумевший обмануть смерть, поставил себе цель покончить с «Неудержимыми» — но у Барни на этот счет свои планы. Барни решает, что в его борьбе «свежий» подход можно противопоставить старым методам, и пополняет ряды людьми, которые моложе, быстрее и технически более подкованные. Так у членов команды «Неудержимых» начинается новая эра. Последняя миссия превращается в столкновение между представителями классической старой школы и экспертами в высоких технологиях.
IMDB , КиноПоиск
Качество видео: BDRip, 720р
Контейнер: MKV
Видео кодек: h.264/AVC
Аудио кодек: AC3
Видео: 1280x536, 23.976fps, 3 146 Kbps, 0.191 bt/px
Аудио #1: 48 kHz, AC3 Dolby Digital, 5.1 (L,C,R,l,r) + LFE ch, ~448 kbps – Лицензия
Аудио #2: 48 kHz, AC3 Dolby Digital, 5.1 (L,C,R,l,r) + LFE ch, ~448 kbps – Гаврилов
Аудио #3: 48 kHz, AC3 Dolby Digital, 5.1 (L,C,R,l,r) + LFE ch, ~448 kbps – Володарский
Аудио #4: 48 kHz, AC3 Dolby Digital, 5.1 (L,C,R,l,r) + LFE ch, ~448 kbps – Горчаков
Аудио #5: 48 kHz, AC3 Dolby Digital, 5.1 (L,C,R,l,r) + LFE ch, ~448 kbps – Есарев
Аудио #6: 48 kHz, AC3 Dolby Digital, 5.1 (L,C,R,l,r) + LFE ch, ~640 kbps – оригинал
Аудио #7: 48 kHz, AC3 Dolby Digital, 5.1 (L,R) ch, ~224 kbps – оригинал
Формат субтитров: Softsub (SRT)
x264 [info]: frame I:2078 Avg QP:14.55 size: 98924
x264 [info]: frame P:47929 Avg QP:15.72 size: 34825
x264 [info]: frame B:139199 Avg QP:19.29 size: 9702
x264 [info]: consecutive B-frames: 4.4% 6.3% 12.1% 19.5% 19.0% 30.6% 4.9% 1.3% 1.2% 0.8%
x264 [info]: mb I I16..4: 6.1% 77.9% 16.1%
x264 [info]: mb P I16..4: 1.2% 16.0% 1.6% P16..4: 27.2% 36.0% 13.4% 2.6% 0.2% skip: 1.8%
x264 [info]: mb B I16..4: 0.1% 1.2% 0.1% B16..8: 35.9% 25.2% 4.1% direct: 4.2% skip:29.1% L0:41.1% L1:46.4% BI:12.5%
x264 [info]: 8x8 transform intra:83.7% inter:56.4%
x264 [info]: coded y,uvDC,uvAC intra: 91.3% 79.2% 58.6% inter: 21.5% 15.2% 3.7%
x264 [info]: i16 v,h,dc,p: 18% 9% 5% 68%
x264 [info]: i8 v,h,dc,ddl,ddr,vr,hd,vl,hu: 11% 9% 9% 9% 13% 12% 13% 11% 13%
x264 [info]: i4 v,h,dc,ddl,ddr,vr,hd,vl,hu: 12% 9% 4% 9% 16% 14% 14% 11% 12%
x264 [info]: i8c dc,h,v,p: 37% 30% 17% 16%
x264 [info]: Weighted P-Frames: Y:14.3% UV:11.0%
x264 [info]: ref P L0: 49.3% 9.3% 17.6% 6.1% 5.0% 3.4% 3.1% 1.6% 1.5% 1.3% 1.3% 0.4% 0.1%
x264 [info]: ref B L0: 75.0% 11.4% 5.0% 2.6% 1.8% 1.6% 1.2% 0.8% 0.5% 0.2%
x264 [info]: ref B L1: 93.3% 6.7%
x264 [info]: kb/s:3269.53
encoded 189206 frames, 2.72 fps, 3269.54 kb/s
Автор рипа:
На дубляже есть вставки Есарева, сам дорогу не делал, выкладываю как есть.
За перевод Гаврилова спасибо:
_MyxAmoP_, Denis1980, Gangster, saenwert, аladdin, KpucTo161, dunhill200, KerkP, ZeRoNe, Loki, kondratzx, Chistobaev, Schmulke, Brown15, dwser, Shumway, kinobbk, chernila,Vimann, maximus1099, nimph, Letyoha3, Диммон, therox, Pain_70, hulahup, karantin66, rydanes, audiolubitel, Denis2251, kolibri2, denis_mgn_1987, Dr. Destructo, milocerd0v, Hattori Hanzo, foxlight, Wolf_Larsen, edsz, Tio, fly32, apollion, Tagansky, Sonny Black, vovyanskiy, ZerR0R, Шайтан.
За перевод Володарского спасибо:fen
Nadoelo, El Cаpitаin, Tio, SJC, ZeDOK, Loki1982, Alex, Daniel Rock, xerman13, Wolf_Larsen, kinobbk,bla_, MyxAmoP, Guyver, User, kondratzx, masta, Евгений_1, uchitel538, Водолей, Nick, dimavirovec, zeleniy, пуля, Lee Ray, idalgo, michael_p2004, edsz, furria62, nimph, vavana, dir, madoffaudiolubitel, denis_mgn_1987, Эдуард, Gouzer, dark1982, vit, Werewolf77, carnivale, Ochkarik1, Диммон,
Denis2251, zuek, maximus10-99, vool

За перевод Горчакова спасибо:
Nadoelo, axl-dr, El Cаpitаin, Tio, ZeDOK, Loki1982, SJC, Daniel Rock, xerman13, Wolf_Larsen, kinobbk, bla_, MyxAmoP, User, kondratzx, masta, uchitel538, Водолей, Nick, zeleniy, Alex70, KINOGON, AlBeOne, idalgo, furria62, nimph, vavana, dir, madoff, audiolubitel, denis_mgn_1987, Эдуард, Gouzer, vit, Werewolf77, Диммон, maximus10-99, vool
General
Unique ID : 241639677826924271275695458723594761064 (0xB5CA1BEFCE477A5CAFBF9230A79BF368)
Complete name : F:\Фильмы архив\__по актерам\Сильвестр Сталлоне\Неудержимые (The Expendables, 2010-2012, BDRip, 720p)\Неудержимые 3 (Expendables 3, 2014, BDRip, 720p) dub-Gavrilov-Volodarsky-Gorchakov-Esarev-eng-com.mkv
Format : Matroska
Format version : Version 2
File size : 5.86 GiB
Duration : 2h 11mn
Overall bit rate : 6 377 Kbps
Movie name : rip by Gross
Encoded date : UTC 2016-09-22 20:05:47
Writing application : mkvmerge v4.7.0 ('Just Like You Imagined') сборка от Apr 21 2011 01:13:14
Writing library : libebml v1.2.0 + libmatroska v1.1.0
Video
ID : 1
Format : AVC
Format/Info : Advanced Video Codec
Format profile : High@L4.1
Format settings, CABAC : Yes
Format settings, ReFrames : 11 frames
Codec ID : V_MPEG4/ISO/AVC
Duration : 2h 11mn
Bit rate : 3 146 Kbps
Width : 1 280 pixels
Height : 536 pixels
Display aspect ratio : 2.40:1
Frame rate mode : Constant
Frame rate : 23.976 fps
Color space : YUV
Chroma subsampling : 4:2:0
Bit depth : 8 bits
Scan type : Progressive
Bits/(Pixel*Frame) : 0.191
Stream size : 2.89 GiB (49%)
Writing library : x264 core 148 r2638kMod 7599210
Encoding settings : cabac=1 / ref=11 / deblock=1:-3:-3 / analyse=0x3:0x133 / me=umh / subme=11 / psy=1 / fade_compensate=0.00 / psy_rd=1.00:0.05 / mixed_ref=1 / me_range=32 / chroma_me=1 / trellis=2 / 8x8dct=1 / cqm=0 / deadzone=21,11 / fast_pskip=0 / chroma_qp_offset=-3 / threads=9 / lookahead_threads=2 / sliced_threads=0 / nr=0 / decimate=1 / interlaced=0 / bluray_compat=0 / constrained_intra=0 / fgo=0 / bframes=9 / b_pyramid=2 / b_adapt=2 / b_bias=0 / direct=1 / weightb=1 / open_gop=0 / weightp=2 / keyint=250 / keyint_min=23 / scenecut=40 / intra_refresh=0 / rc=crf / mbtree=0 / crf=17.2000 / qcomp=0.60 / qpmin=0 / qpmax=69 / qpstep=4 / ip_ratio=1.40 / pb_ratio=1.30 / aq=1:1.00
Language : English
Default : Yes
Forced : No
Audio #1
ID : 2
Format : AC-3
Format/Info : Audio Coding 3
Mode extension : CM (complete main)
Format settings, Endianness : Big
Codec ID : A_AC3
Duration : 2h 11mn
Bit rate mode : Constant
Bit rate : 448 Kbps
Channel(s) : 6 channels
Channel positions : Front: L C R, Side: L R, LFE
Sampling rate : 48.0 KHz
Bit depth : 16 bits
Compression mode : Lossy
Stream size : 421 MiB (7%)
Title : dub (R5 + Unrated (Esarev)
Language : Russian
Default : Yes
Forced : Yes
Audio #2
ID : 3
Format : AC-3
Format/Info : Audio Coding 3
Mode extension : CM (complete main)
Format settings, Endianness : Big
Codec ID : A_AC3
Duration : 2h 11mn
Bit rate mode : Constant
Bit rate : 448 Kbps
Channel(s) : 6 channels
Channel positions : Front: L C R, Side: L R, LFE
Sampling rate : 48.0 KHz
Bit depth : 16 bits
Compression mode : Lossy
Stream size : 421 MiB (7%)
Title : A1 (Gavrilov)
Language : Russian
Default : No
Forced : No
Audio #3
ID : 4
Format : AC-3
Format/Info : Audio Coding 3
Mode extension : CM (complete main)
Format settings, Endianness : Big
Codec ID : A_AC3
Duration : 2h 11mn
Bit rate mode : Constant
Bit rate : 448 Kbps
Channel(s) : 6 channels
Channel positions : Front: L C R, Side: L R, LFE
Sampling rate : 48.0 KHz
Bit depth : 16 bits
Compression mode : Lossy
Stream size : 421 MiB (7%)
Title : A1 (Volodarsky)
Language : Russian
Default : No
Forced : No
Audio #4
ID : 5
Format : AC-3
Format/Info : Audio Coding 3
Mode extension : CM (complete main)
Format settings, Endianness : Big
Codec ID : A_AC3
Duration : 2h 11mn
Bit rate mode : Constant
Bit rate : 448 Kbps
Channel(s) : 6 channels
Channel positions : Front: L C R, Side: L R, LFE
Sampling rate : 48.0 KHz
Bit depth : 16 bits
Compression mode : Lossy
Stream size : 421 MiB (7%)
Title : A1 (Gorchakov)
Language : Russian
Default : No
Forced : No
Audio #5
ID : 6
Format : AC-3
Format/Info : Audio Coding 3
Mode extension : CM (complete main)
Format settings, Endianness : Big
Codec ID : A_AC3
Duration : 2h 11mn
Bit rate mode : Constant
Bit rate : 448 Kbps
Channel(s) : 6 channels
Channel positions : Front: L C R, Side: L R, LFE
Sampling rate : 48.0 KHz
Bit depth : 16 bits
Compression mode : Lossy
Stream size : 421 MiB (7%)
Title : p1 (Esarev)
Language : Russian
Default : No
Forced : No
Audio #6
ID : 7
Format : AC-3
Format/Info : Audio Coding 3
Mode extension : CM (complete main)
Format settings, Endianness : Big
Codec ID : A_AC3
Duration : 2h 11mn
Bit rate mode : Constant
Bit rate : 640 Kbps
Channel(s) : 6 channels
Channel positions : Front: L C R, Side: L R, LFE
Sampling rate : 48.0 KHz
Bit depth : 16 bits
Compression mode : Lossy
Stream size : 602 MiB (10%)
Title : original
Language : English
Default : No
Forced : No
Audio #7
ID : 8
Format : AC-3
Format/Info : Audio Coding 3
Format profile : Dolby Digital
Mode extension : CM (complete main)
Format settings, Endianness : Big
Codec ID : A_AC3
Duration : 2h 11mn
Bit rate mode : Constant
Bit rate : 224 Kbps
Channel(s) : 2 channels
Channel positions : Front: L R
Sampling rate : 48.0 KHz
Bit depth : 16 bits
Compression mode : Lossy
Stream size : 211 MiB (4%)
Title : Commentary
Language : English
Default : No
Forced : No
Text #1
ID : 9
Format : UTF-8
Codec ID : S_TEXT/UTF8
Codec ID/Info : UTF-8 Plain Text
Language : English
Default : No
Forced : No
Text #2
ID : 10
Format : UTF-8
Codec ID : S_TEXT/UTF8
Codec ID/Info : UTF-8 Plain Text
Title : SDH
Language : English
Default : No
Forced : No
Menu
00:00:00.000 : en:Chapter 01
00:07:25.528 : en:Chapter 02
00:13:00.029 : en:Chapter 03
00:22:24.760 : en:Chapter 04
00:30:12.101 : en:Chapter 05
00:36:20.303 : en:Chapter 06
00:42:31.423 : en:Chapter 07
00:48:45.547 : en:Chapter 08
00:55:37.709 : en:Chapter 09
01:01:30.269 : en:Chapter 10
01:12:07.573 : en:Chapter 11
01:21:14.786 : en:Chapter 12
01:30:10.655 : en:Chapter 13
01:36:43.339 : en:Chapter 14
01:47:47.627 : en:Chapter 15
01:56:15.760 : en:Chapter 16
Download / Скачать

Хотите скачать бесплатно? Зарегистрируйтесь на сайте (ссылка на регистрацию). Pirat.ca - самый быстрый торрент трекер в рунете!

Как скачивать  ·   Что такое торрент  ·   Рейтинг и ограничения



Последний раз редактировалось: gross1978 (2016-11-25 23:12), всего редактировалось 18 раз(а)

olipov

Легенда

Пост 15-Сен-2014 00:27 (спустя 2 дня 2 часа)

[Q] 

стоит посмотреть хотя б разок?
[Профиль]  [ЛС] 

gross1978 ®

7580

Пост 15-Сен-2014 00:29 (спустя 1 минута)

[Q] 

olipov, стоит посмотреть и не один разок, мегабоевик:) особенно было актуально в 2010 году, когда Шварц был губернатором....

_________________
Употребляйте правильно слова, и вы избавите мир от половины недоразумений (Р.Декарт).
Если у Вас есть переводы в авторском, которых нет в моих раздачах и желание ими поделиться, пишите, добавим:)
[Профиль]  [ЛС] 

Ikoka_Divo

469

Пост 15-Сен-2014 10:08 (спустя 9 часов)

[Q] 

Долго думала, что стоит сказать об этом фильме. Как-то снова всё больше эмоции.
Милый такой, славный, ироничный фильм. Не шедевр, на мой взгляд, но посмотреть вполне можно. И даже всей семьёй.
Про зашкаливающую крутизну собранной команды говорить и не приходится, до меня всё это сказано сто раз.
Снова актёры получают удовольствие от того, чем занимаются. А это всегда заражает. Смех над самими собой и своими традиционными героями тоже подкупают.
Сюжет тоже вполне традиционный, мягко говоря.
Было несколько моментов, которые прямо порадовали. Эта эпическая музыка при появлении Норриса, например. Прямые отсылки на Рэмбо, Терминатора и прочих "суперов", которых актёры сыграли когда-то.
Героическая легкость, с которой команда разделывается с врагами, в лучших традициях подобных абсурдно героических фильмов - нарушая все законы логики и физики, руководствуясь только законами жанра приводит в щенячий восторг, вызывает адреналиновый приступ у зрителя, который любит подобное кино.
Это не переворот в кинематографе. Это отнюдь не попытка заработать на известных именах. Полагаю, это возможность для них подольше оставаться "на плаву", "в обойме", по прежнему чувствовать себя супергероями.
Хотя, они и без этого фильма большие молодцы. Почти одновременно сразу в нескольких фильмах появились снова.
Порадовали игры с переводом названия фильма, как это часто бывает в нашем родном прокате. В этот раз, на удивление, переводное название оказалось удачнее оригинала, хоть и не передаёт его сути совершенно. Дословно название переводится "расходные материалы" или "пушечное мясо". Но "Неудержимые" звучит куда круче!
В общем, вполне смотрибельный фильм, хоть и не назовёшь его интересным. Но некоторые детали делают его запоминающимся.

_________________

[Профиль]  [ЛС] 

gross1978 ®

7580

Пост 15-Сен-2014 10:30 (спустя 22 минуты)

[Q] 

Ikoka_Divo, Спасибо за рецензию, лучше и не напишешь!!!
Друзья ждем третью часть с не менее умопомрачительным составом актеров:)

_________________
Употребляйте правильно слова, и вы избавите мир от половины недоразумений (Р.Декарт).
Если у Вас есть переводы в авторском, которых нет в моих раздачах и желание ими поделиться, пишите, добавим:)
[Профиль]  [ЛС] 

Ikoka_Divo

469

Пост 15-Сен-2014 10:32 (спустя 2 минуты)

[Q] 

gross1978, спасибо за раздачу и за поддержку!)
знаете, навыбирала фильмы, которые зацепили, и про которые хотелось бы впечатлениями поделиться, и оказалось, что это всё Ваши раздачи.)
Вы выкладываете только то, что нравится или по какому принципу?)))

_________________

[Профиль]  [ЛС] 

gross1978 ®

7580

Пост 15-Сен-2014 10:48 (спустя 15 минут)

[Q] 

Принципа как такового нет, есть просто желание поделиться чем-то с другими, и главное чтобы это "чем-то" было чем-то. Эка накаламбурил...

_________________
Употребляйте правильно слова, и вы избавите мир от половины недоразумений (Р.Декарт).
Если у Вас есть переводы в авторском, которых нет в моих раздачах и желание ими поделиться, пишите, добавим:)
[Профиль]  [ЛС] 

Ikoka_Divo

469

Пост 15-Сен-2014 10:50 (спустя 1 минута)

[Q] 

gross1978, главное - что всё понятно.) слова-то подобраны правильные.)))
фильмы действительно стоящие.)

_________________

[Профиль]  [ЛС] 

olipov

Легенда

Пост 15-Сен-2014 18:02 (спустя 7 часов)

[Q] 

Раздающему респект!
раздачу поддержу
[Профиль]  [ЛС] 

ApatoZAvR

Шкипер

Пост 17-Сен-2014 13:22 (спустя 1 день 19 часов)

[Q] 

Благодарю)
[Профиль]  [ЛС] 

robinson

Морской Волк

Пост 19-Сен-2014 06:57 (спустя 1 день 17 часов)

[Q] 

Всем качать!!! Спасибки)
[Профиль]  [ЛС] 

gross1978 ®

7580

Пост 23-Фев-2015 20:35 (спустя 5 месяцев 4 дня)

[Q] 

ВНИМАНИЕ! Добавлена 3 часть трилогии.
ВСЕМ КТО КАЧАЛ ПЕРВЫЕ 2 ЧАСТИ, просто скачайте торрент и перехешируйте раздачу.

_________________
Употребляйте правильно слова, и вы избавите мир от половины недоразумений (Р.Декарт).
Если у Вас есть переводы в авторском, которых нет в моих раздачах и желание ими поделиться, пишите, добавим:)
[Профиль]  [ЛС] 

Shumway

Корсар

Пост 23-Фев-2015 20:47 (спустя 12 минут)

[Q] 

bp Дождалися!
[Профиль]  [ЛС] 

gross1978 ®

7580

Пост 23-Фев-2015 20:51 (спустя 3 минуты)

[Q] 

а-то:) az
Комп ремонтировал, технические трудности:)

_________________
Употребляйте правильно слова, и вы избавите мир от половины недоразумений (Р.Декарт).
Если у Вас есть переводы в авторском, которых нет в моих раздачах и желание ими поделиться, пишите, добавим:)
[Профиль]  [ЛС] 

kinstintin

Гроза морей

Пост 23-Фев-2015 21:18 (спустя 27 минут)

[Q] 

647976ВНИМАНИЕ! Добавлена 3 часть трилогии.
ВСЕМ КТО КАЧАЛ ПЕРВЫЕ 2 ЧАСТИ, просто скачайте торрент и перехешируйте раздачу.
Автору респект!!!
Лови бочку
[Профиль]  [ЛС] 

videolover

Шкипер

4

Пост 27-Фев-2015 23:31 (спустя 4 дня)

[Q] 

Добротный боевик в стиле 80-х. Классная задумка собрать как можно больше героев экшена в одной франчизе. Заберу 3-ю часть. СПАСИБО!!! Лови бочку
[Профиль]  [ЛС] 

gross1978 ®

7580

Пост 15-Авг-2015 17:30 (спустя 5 месяцев 15 дней)

[Q] 

Всем пожалуйста и Спасибо за Спасибо

_________________
Употребляйте правильно слова, и вы избавите мир от половины недоразумений (Р.Декарт).
Если у Вас есть переводы в авторском, которых нет в моих раздачах и желание ими поделиться, пишите, добавим:)
[Профиль]  [ЛС] 

GoodNight

Лоцман

Пост 08-Янв-2016 22:50 (спустя 4 месяца 24 дня)

[Q] 

Хорошая сборка. А если бы еще и раздавалась, то вообще была бы отличной.
Сиды будут или можно спокойно сваливать?
[Профиль]  [ЛС] 

gross1978 ®

7580

Пост 08-Янв-2016 23:04 (спустя 14 минут)

[Q] 

3 сида на месте.
Поскольку у меня отдача маленькая, сейчас раздаю чаппи.
Если у Вас не качает проверьте свой клиент, подключился на раздачу и по DHT.

_________________
Употребляйте правильно слова, и вы избавите мир от половины недоразумений (Р.Декарт).
Если у Вас есть переводы в авторском, которых нет в моих раздачах и желание ими поделиться, пишите, добавим:)
[Профиль]  [ЛС] 

GoodNight

Лоцман

Пост 08-Янв-2016 23:12 (спустя 7 минут)

[Q] 

7278973 сида на месте.
Поскольку у меня отдача маленькая, сейчас раздаю чаппи.
Если у Вас не качает проверьте свой клиент, подключился на раздачу и по DHT.
С клиентом все в порядке. С железом тоже. Хардлайн на 100 мбит. DHT включен. На раздаче несколько десятков релизов. Летает всё. Эта раздача единственная на которой обмен равен нулю.
UPD:
Удалил торрент. Перекачал заново. Обмен пошел, но... 50 кб/с..((
Так что, по возможности, прошу присоединиться.
[Профиль]  [ЛС] 

gross1978 ®

7580

Пост 08-Янв-2016 23:15 (спустя 3 минуты)

[Q] 

вижу отдачу. за ночь отдам точно, скорость ночью большая.

_________________
Употребляйте правильно слова, и вы избавите мир от половины недоразумений (Р.Декарт).
Если у Вас есть переводы в авторском, которых нет в моих раздачах и желание ими поделиться, пишите, добавим:)
[Профиль]  [ЛС] 

GoodNight

Лоцман

Пост 08-Янв-2016 23:28 (спустя 13 минут)

[Q] 

727902вижу отдачу.
Всё. Как и раньше, - на 23,9 мб раздача встаёт.
Жду.
Upd:
Еле скачал. Спасибо.
Жаль, вовремя не заметил, что 2-я и 3-я части без оригинальной дороги. И надо было ТАК экономить..?
Пока на раздаче.
[Профиль]  [ЛС] 

gross1978 ®

7580

Пост 25-Ноя-2016 23:08 (спустя 10 месяцев 16 дней)

[Q] 

ВНИМАНИЕ! Торрент обновлен по причине отсутствия сидов.
Все видеоряды заменил на новые (лучшего качества), для перфекционистов добавил оригинальные дороги. Для коллекционеров добавлен перевод Есарева.

_________________
Употребляйте правильно слова, и вы избавите мир от половины недоразумений (Р.Декарт).
Если у Вас есть переводы в авторском, которых нет в моих раздачах и желание ими поделиться, пишите, добавим:)
[Профиль]  [ЛС] 

dolzhenko_92

Штурман

Пост 25-Ноя-2016 23:36 (спустя 27 минут)

[Q] 

Спасибо! Супер!
[Профиль]  [ЛС] 

anton966

10209

Пост 26-Ноя-2016 00:44 (спустя 1 час 8 минут)

[Q] 

GoodNight,
Какие люди!! Уважаемый Kordalan, только сейчас заметил, что ты нас посетил. Мое почтение! aa

_________________
" ...потому что во многой мудрости много печали; и кто умножает познания, умножает скорбь" ( Еккл 1:17,18)
[Профиль]  [ЛС] 

ToRiR

Корсар

Пост 21-Апр-2017 20:54 (спустя 4 месяца 25 дней)

[Q] 

Неплохое кино.Приятно удивила бывшая звезда боев без правил Ронда Роузи,которая до сих пор держит рекорд по кол-ву защит титула среди женщин и "самый быстрый нокаут".У нее явно хорошие актерские задатки.Старички молодцы-ничего не скажешь,самоирония на высоте.
[Профиль]  [ЛС] 

Кристина119

Флибустьер

Пост 23-Авг-2017 11:13 (спустя 4 месяца 1 день)

[Q] 

Мочилово в мясо Лови бочку
[Профиль]  [ЛС] 
Показать сообщения:    
Ответить на тему

Текущее время: Сегодня 08:18

Часовой пояс: GMT + 4



Вы не можете начинать темы
Вы не можете отвечать на сообщения
Вы не можете редактировать свои сообщения
Вы не можете удалять свои сообщения
Вы не можете голосовать в опросах
Вы не можете прикреплять файлы к сообщениям
Вы не можете скачивать файлы

▼ Вниз