Уважаемый Гость!
Вы можете поддержать проект и зарегистрироваться у наших партнеров - онлайн-стратегия MyLands. При регистрации в игре Вы получите код, который сможете активировать после регистрации на pirat.ca и получить 1000 дублонов.

Ваш код:
d23e35cc32311333deb9b06dcb56734ec3e547bf
 
     

Manu Chao - Me gustas tu [2001] (Dance) [WebRip]

Ответить на тему
 
Автор
Сообщение

Пост 21-Дек-2014 12:58

[Q] 

Амангельды

Manu Chao - Me gustas tu Год выпуска: 2011
Страна: France
Студия: Virgin France S.A.
Альбом: Manu Chao - Proxima Estacion... Esperanza.
Жанр: Dance
Продолжительность: 00:03:55
Качество: WebRip
Формат: MP4
Видео кодек: AVC
Аудио кодек: AAC
Видео: 958x720, 25,000 fps, 2518 kbps, 0.146 bit/pixel
Аудио: 44,1 kHz, 2 ch, 192 kbps avg




Формат : MPEG-4
Профиль формата : Base Media / Version 2
Идентификатор кодека : mp42
Размер файла : 76,3 Мбайт
Продолжительность : 3 м. 55 с.
Общий поток : 2712 Кбит/сек
Дата кодирования : UTC 2014-01-02 17:35:09
Дата пометки : UTC 2014-01-02 17:35:09
gsst : 0
gstd : 235983
gssd : B0AFCE854HH1418502461011731
gshh : r13---sn-aigllnd7.googlevideo.com
Видео
Идентификатор : 1
Формат : AVC
Формат/Информация : Advanced Video Codec
Профиль формата : [email protected]
Параметр CABAC формата : Да
Параметр ReFrames формата : 1 кадр
Идентификатор кодека : avc1
Идентификатор кодека/Информация : Advanced Video Coding
Продолжительность : 3 м. 55 с.
Битрейт : 2518 Кбит/сек
Максимальный битрейт : 4749 Кбит/сек
Ширина : 958 пикс.
Высота : 720 пикс.
Соотношение сторон : 4:3
Режим частоты кадров : Постоянный
Частота кадров : 25,000 кадр/сек
Цветовое пространство : YUV
Подвыборка цветности : 4:2:0
Битовая глубина : 8 бит
Тип развёртки : Прогрессивная
Бит/(Пиксели*Кадры) : 0.146
Размер потока : 70,8 Мбайт (93%)
Дата пометки : UTC 2014-01-02 17:35:12
Аудио
Идентификатор : 2
Формат : AAC
Формат/Информация : Advanced Audio Codec
Профиль формата : LC
Идентификатор кодека : 40
Продолжительность : 3 м. 55 с.
Вид битрейта : Переменный
Битрейт : 192 Кбит/сек
Максимальный битрейт : 203 Кбит/сек
Каналы : 2 канала
Расположение каналов : Front: L R
Частота : 44,1 КГц
Метод сжатия : С потерями
Размер потока : 5,40 Мбайт (7%)
Заголовок : IsoMedia File Produced by Google, 5-11-2011
Дата кодирования : UTC 2014-01-02 17:35:11
Дата пометки : UTC 2014-01-02 17:35:12
Ману Чао (имя при рождении — Хосе-Мануэль Томас Артур Чао (исп. Jose-Manuel Thomas Arthur Chao), род. 21 июня 1961,
Париж) — французский музыкант испанского (галисийско-баскского) происхождения. Известен как сольный музыкант и как
лидер группы Mano Negra. Его музыку можно охарактеризовать как сплав рока и латиноамериканской музыки. Тексты песен
Ману Чао на французском, испанском, галисийском, португальском и английском языках.
Ману Чао родился в Париже в семье испанцев, иммигрировавших во Францию, скрываясь от диктатуры Франко.
Его отец — известный журналист и писатель Рамон Чао. Ману Чао вырос в Париже и живёт в Бразилии, Марселе и
Барселоне. С 1987 по 1995 год был лидером музыкального коллектива «Mano Negra», основанного Ману и его братом
Антуаном. До того участвовал в группе «Le Hots Pants». Тексты «Mano Negra» зачастую носили политический характер.
В 1995 году Ману распустил группу и начал деятельность под собственным именем, в сопровождении группы
«Radio Bemba Sound System». Коммерческий успех в Европе и Северной Америке пришёл с выходом сингла «Bongo Bong» (1998).
Темы альбомов «Clandestino» и «Proxima Estacion: Esperanza», получивших статус платиновых, — политические и социальные
проблемы развивающихся стран, но также тематика жизни и любви в целом. Ману Чао демонстрирует свои политические
убеждения не только в текстах песен, но и оказывает финансовую поддержку начинающим музыкантам, а также поддерживая
борцов за независимость страны Басков.
Среди премий Ману Чао: лучший французский исполнитель 2001 года на «MTV Europe Music Awards» и «Гойя» за лучшую
песню (2006, песня Me llaman Calle к фильму «Принцессы»). Он также является композитором фильма «Марадона» (2008)
Эмира Кустурицы. «Me gustas Tu» (2001) является саундтреком этого фильма.
«Однажды в мексике»(Desperado 2), (2003
Download / Скачать

Хотите скачать бесплатно? Зарегистрируйтесь на сайте (ссылка на регистрацию). Pirat.ca - самый быстрый торрент трекер в рунете!

Как скачивать  ·   Что такое торрент  ·   Рейтинг и ограничения



Последний раз редактировалось: Амангельды (2014-12-21 14:06), всего редактировалось 2 раз(а)

Дядя Витя

59226

Пост 21-Дек-2014 20:06 (спустя 7 часов)

[Q] 

Ми корасон ми густас ту ar
У Manu Chao есть ещё "Bongo Bong" прикольное ...

_________________
?
[Профиль]  [ЛС] 

Амангельды ®

37572

Пост 21-Дек-2014 20:42 (спустя 35 минут)

[Q] 

VIT74, из раннего -- 98 года...
az

_________________

Товарищ, верь, пройдет она,
Так называемая гласность.
И вот тогда госбезопасность
Припомнит ваши имена
Раздачи от Амангельды - ТЫНЦ
[Профиль]  [ЛС] 

lightmaster

Гроза морей

Пост 02-Апр-2017 10:52 (спустя 2 года 3 месяца)

[Q] 

Хотел качнуть- никого нету...ауууу
[Профиль]  [ЛС] 

Амангельды ®

37572

Пост 04-Июл-2017 04:24 (спустя 3 месяца 1 день)

[Q] 

lightmaster, )))

_________________

Товарищ, верь, пройдет она,
Так называемая гласность.
И вот тогда госбезопасность
Припомнит ваши имена
Раздачи от Амангельды - ТЫНЦ
[Профиль]  [ЛС] 
Показать сообщения:    
Ответить на тему

Текущее время: Сегодня 07:58

Часовой пояс: GMT + 4



Вы не можете начинать темы
Вы не можете отвечать на сообщения
Вы не можете редактировать свои сообщения
Вы не можете удалять свои сообщения
Вы не можете голосовать в опросах
Вы не можете прикреплять файлы к сообщениям
Вы не можете скачивать файлы

▼ Вниз