Уважаемый Гость!
Вы можете поддержать проект и зарегистрироваться у наших партнеров - онлайн-стратегия MyLands. При регистрации в игре Вы получите код, который сможете активировать после регистрации на pirat.ca и получить 1000 дублонов.

Ваш код:
e97448b672ad9b92bef9c116971d883e11324603
 
     

Взятие Беверли Хиллз / The Taking of Beverly Hills (Сидни Дж. Фьюри / Sidney J. Furie) [1991 г., Боевик, триллер, BDRip, 720p] DVO + AVO (Юрий Живов) + original (Eng)

Ответить на тему
 
Автор
Сообщение

Пост 23-Янв-2015 23:54

[Q] 

Юрай

Флибустьер

Взятие Беверли Хиллз / The Taking of Beverly Hills
Год выпуска: 1991
Производство: США
Жанр: Боевик, триллер
Продолжительность: 01:34:50
Перевод: Профессиональный (двухголосый, закадровый) DVO
Перевод: Авторский (одноголосый, закадровый) Юрий Живов
Оригинальный аудиопоток: английский
Субтитры: отсутствуют
Режиссер: Сидни Дж. Фьюри / Sidney J. Furie
В ролях: Кен Уол, Мэтт Фрюэр, Роберт Дави, Харли Джейн Козак, Ли Винг, Брэнскомб Ричмонд, Лаймэн Уард, Майкл Боуен, Уильям Принс, Майкл Кихо
Описание: Хорошо организованная банда злоумышленников под прикрытием эвакуации в связи c ложной аварией, вызванной утечкой ядовитого газа, пытается ограбить опустевшие дома и магазины элитного района Беверли-Хилз. Но на пути у них встает американский футболист, который случайно уснул в ванной (и, соответственно, пропустил «эвакуацию») у своей подружки…
IMDB , КиноПоиск
Качество видео: BDRip
Контейнер: MKV
Стандарт разрешения: 720p
Видео кодек: H.264
Аудио кодек: AC3
Видео: 1280x544, 23.976 fps, 4398 Kbps, 0.263 Bt/Px
Аудио : AC-3, 160 Kbps, 2 ch, 48.0 KHz Rus DVO
Аудио : AC-3, 160 Kbps, 2 ch, 48.0 KHz Rus Живов
Аудио : AC-3, 448 Kbps, 2 ch, 48.0 KHz Eng Original
Дорога Живова оставляет желать лучшего.
G:\загрузки\The Taking of Beverly Hills.mkv
General
Unique ID : 182162278992742403355493776233361967001 (0x890B2DC4DA782FB5B8641B55F79E0799)
Complete name : G:\загрузки\The Taking of Beverly Hills.mkv
Format : Matroska
Format version : Version 1
File size : 3.49 GiB
Duration : 1h 34mn
Overall bit rate : 5 271 Kbps
Encoded date : UTC 2015-01-23 19:16:07
Writing application : mkvmerge v2.5.3 ('Boogie') built on Mar 7 2009 15:00:41
Writing library : libebml v0.7.7 + libmatroska v0.8.1
Video #1
ID : 1
Format : AVC
Format/Info : Advanced Video Codec
Format profile : [email protected]
Format settings, CABAC : Yes
Format settings, ReFrames : 12 frames
Codec ID : V_MPEG4/ISO/AVC
Duration : 1h 34mn
Bit rate : 4 398 Kbps
Width : 1 280 pixels
Height : 544 pixels
Display aspect ratio : 2.35:1
Frame rate mode : Constant
Frame rate : 23.976 fps
Color space : YUV
Chroma subsampling : 4:2:0
Bit depth : 8 bits
Scan type : Progressive
Bits/(Pixel*Frame) : 0.263
Stream size : 2.91 GiB (83%)
Writing library : x264 core 130 r2273 b3065e6
Encoding settings : cabac=1 / ref=12 / deblock=1:-3:-3 / analyse=0x3:0x133 / me=umh / subme=11 / psy=1 / psy_rd=1.00:0.15 / mixed_ref=1 / me_range=32 / chroma_me=1 / trellis=2 / 8x8dct=1 / cqm=0 / deadzone=21,11 / fast_pskip=1 / chroma_qp_offset=-3 / threads=6 / lookahead_threads=1 / sliced_threads=0 / nr=0 / decimate=1 / interlaced=0 / bluray_compat=0 / constrained_intra=0 / bframes=8 / b_pyramid=2 / b_adapt=2 / b_bias=0 / direct=1 / weightb=1 / open_gop=0 / weightp=2 / keyint=250 / keyint_min=23 / scenecut=40 / intra_refresh=0 / rc_lookahead=50 / rc=crf / mbtree=1 / crf=19.0 / qcomp=0.60 / qpmin=0 / qpmax=51 / qpstep=4 / ip_ratio=1.40 / aq=1:1.00
Language : English
Default : Yes
Forced : No
Audio #2
ID : 2
Format : AC-3
Format/Info : Audio Coding 3
Mode extension : CM (complete main)
Format settings, Endianness : Big
Codec ID : A_AC3
Duration : 1h 34mn
Bit rate mode : Constant
Bit rate : 160 Kbps
Channel(s) : 2 channels
Channel positions : Front: L R
Sampling rate : 48.0 KHz
Bit depth : 16 bits
Compression mode : Lossy
Stream size : 109 MiB (3%)
Title : DVO
Language : Russian
Default : Yes
Forced : No
Audio #3
ID : 3
Format : AC-3
Format/Info : Audio Coding 3
Mode extension : CM (complete main)
Format settings, Endianness : Big
Codec ID : A_AC3
Duration : 1h 34mn
Bit rate mode : Constant
Bit rate : 160 Kbps
Channel(s) : 2 channels
Channel positions : Front: L R
Sampling rate : 48.0 KHz
Bit depth : 16 bits
Compression mode : Lossy
Stream size : 109 MiB (3%)
Title : AVO Живов
Language : Russian
Default : No
Forced : No
Audio #4
ID : 4
Format : AC-3
Format/Info : Audio Coding 3
Mode extension : CM (complete main)
Format settings, Endianness : Big
Codec ID : A_AC3
Duration : 1h 34mn
Bit rate mode : Constant
Bit rate : 448 Kbps
Channel(s) : 2 channels
Channel positions : Front: L R
Sampling rate : 48.0 KHz
Bit depth : 16 bits
Compression mode : Lossy
Stream size : 304 MiB (8%)
Language : English
Default : No
Forced : No
x264 [info]: frame I:1103  Avg QP:16.81  size:140261
x264 [info]: frame P:28243 Avg QP:20.34 size: 53226
x264 [info]: frame B:107093 Avg QP:22.63 size: 14401
x264 [info]: consecutive B-frames: 1.6% 1.7% 7.8% 15.4% 16.4% 51.9% 3.6% 0.8% 0.9%
x264 [info]: mb I I16..4: 22.4% 57.7% 20.0%
x264 [info]: mb P I16..4: 0.5% 15.0% 1.2% P16..4: 26.9% 35.2% 13.6% 2.4% 0.3% skip: 4.9%
x264 [info]: mb B I16..4: 0.0% 1.4% 0.1% B16..8: 39.2% 15.9% 2.8% direct: 7.7% skip:32.9% L0:41.3% L1:45.1% BI:13.7%
x264 [info]: 8x8 transform intra:85.7% inter:55.8%
x264 [info]: coded y,uvDC,uvAC intra: 97.3% 72.1% 37.8% inter: 33.7% 19.6% 1.7%
x264 [info]: i16 v,h,dc,p: 18% 15% 31% 36%
x264 [info]: i8 v,h,dc,ddl,ddr,vr,hd,vl,hu: 8% 8% 12% 10% 14% 13% 13% 11% 12%
x264 [info]: i4 v,h,dc,ddl,ddr,vr,hd,vl,hu: 9% 9% 4% 9% 15% 14% 14% 12% 13%
x264 [info]: i8c dc,h,v,p: 30% 31% 20% 19%
x264 [info]: Weighted P-Frames: Y:7.0% UV:3.9%
x264 [info]: ref P L0: 39.0% 11.0% 18.7% 6.2% 6.4% 4.0% 4.5% 2.1% 2.5% 1.7% 2.1% 1.6% 0.3% 0.0%
x264 [info]: ref B L0: 88.1% 5.5% 2.0% 1.1% 0.8% 0.7% 0.6% 0.4% 0.3% 0.2% 0.1%
x264 [info]: ref B L1: 97.6% 2.4%
x264 [info]: kb/s:4498.87
x264 [total]: encoded 136439 frames, 3.40 fps, 4498.87 kb/s
Download / Скачать

Хотите скачать бесплатно? Зарегистрируйтесь на сайте (ссылка на регистрацию). Pirat.ca - самый быстрый торрент трекер в рунете!

Как скачивать  ·   Что такое торрент  ·   Рейтинг и ограничения

Пост 24-Янв-2015 00:16 (спустя 22 минуты)

Топик был перенесен из форума DVD / HD с Авторским переводом (Трюм) в форум HD (Фильмы с Авторским переводом)
gross1978
 

PaSHock

Лоцман

Пост 02-Янв-2017 13:13 (спустя 1 год 11 месяцев)

[Q] 

Уважаемый автор раздачи, пожалуйста, помогите скачать, встаньте на раздачу. Скачавших ранее всего 4 человека, потому не удивительно, что кнопка "позвать скачавших" не помогает. Даже удивительно, неужели этот фильм настолько не популярен!?
[Профиль]  [ЛС] 
Показать сообщения:    
Ответить на тему

Текущее время: Сегодня 21:48

Часовой пояс: GMT + 4



Вы не можете начинать темы
Вы не можете отвечать на сообщения
Вы не можете редактировать свои сообщения
Вы не можете удалять свои сообщения
Вы не можете голосовать в опросах
Вы не можете прикреплять файлы к сообщениям
Вы не можете скачивать файлы

▼ Вниз