Двадцать одно / 21 (Роберт Лукетич / Robert Luketic) [2008 г., драма, криминал, DVDRip] Dub

Ответить на тему
 
Автор
Сообщение

Пост 23-Янв-2012 19:38

[Q] 

erchine

Двадцать одно / 21
Год выпуска: 2008
Мировая премьера: 7 марта 2008
Российская премьера: 17 апреля 2008
Производство: США
Жанр: драма, криминал
Продолжительность: 1:57:40
Перевод: Профессиональный (полное дублирование)
Субтитры: отсутствуют
Режиссер: Роберт Лукетич / Robert Luketic
В ролях
Джим Старджесс, Кевин Спейси, Кейт Босворт, Аарон Йу, Лиза Лапира, Джейкоб Питтс, Лоуренс Фишборн, Джек МакГи, Джош Гад, Сэм Голзари
Описание
Карточная игра — комбинация уникальных математических расчетов, превосходных актерских талантов и хладнокровной выдержки. Карточный игрок — человек особого склада. Молодые люди решили провернуть аферу века и разорить крупнейшие казино страны на астрономическую сумму. Они решили взять Вегас! Их пятеро. Игра захватила их целиком. Их игра поразила своей виртуозностью. Они изменили ход самой игры.
IMDB , КиноПоиск
Источник/Качество: DVDRip
Формат: AVI
Видео кодек: XviD
Аудио кодек: AC3
Видео: Xvid 720x400 25.00fps 2041 Kbps 0.283 b/px
Аудио: Dolby AC3 48000Hz 5ch 448kbps
General
Complete name : F:\Dvadcat.odno_2008.XviD.DVDRip.avi
Format : AVI
Format/Info : Audio Video Interleave
Format profile : OpenDML
File size : 2.05 GiB
Duration : 1h 57mn
Overall bit rate : 2 498 Kbps
Writing application : VirtualDubMod 1.5.4.1 (build 2178/release)
Writing library : VirtualDubMod build 2178/release
Video
ID : 0
Format : MPEG-4 Visual
Format profile : Advanced [email protected]
Format settings, BVOP : No
Format settings, QPel : No
Format settings, GMC : No warppoints
Format settings, Matrix : Custom
Codec ID : XVID
Codec ID/Hint : XviD
Duration : 1h 57mn
Bit rate : 2 041 Kbps
Width : 720 pixels
Height : 400 pixels
Display aspect ratio : 16:9
Frame rate : 25.000 fps
Color space : YUV
Chroma subsampling : 4:2:0
Bit depth : 8 bits
Scan type : Progressive
Compression mode : Lossy
Bits/(Pixel*Frame) : 0.283
Stream size : 1.68 GiB (82%)
Writing library : XviD 1.2.0.dev47 (UTC 2006-11-01)
Audio
ID : 1
Format : AC-3
Format/Info : Audio Coding 3
Mode extension : CM (complete main)
Codec ID : 2000
Duration : 1h 57mn
Bit rate mode : Constant
Bit rate : 448 Kbps
Channel(s) : 5 channels
Channel positions : Front: L C R, Side: L R
Sampling rate : 48.0 KHz
Bit depth : 16 bits
Compression mode : Lossy
Stream size : 377 MiB (18%)
Alignment : Split accross interleaves
Interleave, duration : 96 ms (2.40 video frames)
Interleave, preload duration : 96 ms
Language : Russian
Download / Скачать

Хотите скачать бесплатно? Зарегистрируйтесь на сайте (ссылка на регистрацию). Pirat.ca - самый быстрый торрент трекер в рунете!

Как скачивать  ·   Что такое торрент  ·   Рейтинг и ограничения

Пост 23-Янв-2012 20:41 (спустя 1 час 2 минуты)

Топик был перенесен из форума Художественные фильмы (Зарубежное кино) в форум Современное кино (с 2000 г.)

Skinwalker
 

olmed

Гроза морей

Пост 23-Янв-2012 20:44 (спустя 1 час 5 минут)

[Q] 

посмотрим
[Профиль]  [ЛС] 

Vade7Mecum

Морской Волк

Пост 08-Июл-2012 23:56 (спустя 5 месяцев 16 дней)

[Q] 

[Профиль]  [ЛС] 

Прораб

Легенда

Пост 11-Июл-2013 22:45 (спустя 1 год)

[Q] 


В коллекцию!!!
[Профиль]  [ЛС] 

CHARLI2236

1236

Пост 25-Июл-2013 19:23 (спустя 13 дней)

[Q] 

3

_________________
[Профиль]  [ЛС] 

bnmbnm

Корсар

51

Пост 02-Янв-2014 14:10 (спустя 5 месяцев 7 дней)

[Q] 

Хорошее кино, беру
[Профиль]  [ЛС] 

Дмитрий2011d

Шкипер

Пост 12-Апр-2015 13:52 (спустя 1 год 3 месяца)

[Q] 

!COOL! !!!!!!!!!!!
[Профиль]  [ЛС] 

po4taivan

Штурман

Пост 23-Май-2015 16:54 (спустя 1 месяц 11 дней)

[Q] 

дайте скорость плиз!
[Профиль]  [ЛС] 

po4taivan

Штурман

Пост 23-Май-2015 22:01 (спустя 5 часов)

[Q] 

почемуто прекратилась загрузка, ищет подключения к пирам
[Профиль]  [ЛС] 
Показать сообщения:    
Ответить на тему

Текущее время: Сегодня 15:59

Часовой пояс: GMT + 4



Вы не можете начинать темы
Вы не можете отвечать на сообщения
Вы не можете редактировать свои сообщения
Вы не можете удалять свои сообщения
Вы не можете голосовать в опросах
Вы не можете прикреплять файлы к сообщениям
Вы не можете скачивать файлы

Майнать ▼