Уважаемый Гость!
Вы можете поддержать проект и зарегистрироваться у наших партнеров - онлайн-стратегия MyLands. При регистрации в игре Вы получите код, который сможете активировать после регистрации на pirat.ca и получить 1000 дублонов.

Ваш код:
e97448b672ad9b92bef9c116971d883e11324603
 
     

Мышиная охота / Mousehunt (Гор Вербински / Gore Verbinski) [1997 г., Комедия, HD DVDRip, 720p] AVO (Гаврилов, Кашкин)

Ответить на тему
 
Автор
Сообщение

Пост 13-Июл-2015 09:51

[Q] 

anton966

Мышиная охота / Mousehunt
«You don't need to be big to be a hero»
- Год выпуска: 1997
Мировая премьера: 19 December 1997 (USA)
Производство: США
Жанр: Комедия
Продолжительность: 01:37:46
Перевод: Авторский (одноголосый закадровый) Андрей Гаврилов, Алексанр Кашкин (Первомайский)
Режиссер: Гор Вербински / Gore Verbinski
В ролях: Натан Лэйн / Nathan Lane, Ли Эванс / Lee Evans, Мори Чайкин / Maury Chaykin, Эрик Кристмас / Eric Christmas, Майкл Джетер / Michael Jeter, Иэн Эберкромби / Ian Abercrombie, Аннабель Гурвич / Annabelle Gurwitch, Эрни Сабелла / Ernie Sabella, Уильям Хикки / William Hickey, Кристофер Уокен / Christopher Walken
Описание: Двое братьев получают в наследство от очень уже старого отца нитяную фабрику и старый загородный особняк. За фабрику (прошлого еще, наверное, века) предлагали кое-какие деньги, но один из братьев продавать ее отказался, после чего его сразу оставила жена. Дом был построен известнейшим архитектором, и покупателей на него нашлось столько, что братья решили устроить аукцион. Все было бы хорошо, но в здании была обнаружена чрезвычайно хитрая мышь, обладающая способностями, позволяющими сделать вывод о ее разумности. Братья объявили войну маленькому грызуну, которая длится почти все экранное время. Остается удивляться фантазии авторов: какими только средствами ни велись "боевые действия" по уничтожению противника! Даже суперспециалист (Уокен) оказался в больнице. Удалось ли братьям продать дом, что стало с фабрикой, любители фантастических комедий пусть узнают сами. (Иванов М.)

Качество видео: HD DVDRip-AVC
Контейнер: MKV
Видео кодек: AVC / H.264
Видео: 1280x720 / 4487 kbps / 23,976 fps / 16:9 / High Profile 4.1
Аудио#1: 48 kHz, AC3 Dolby Digital, 3/2 (L,C,R,l,r) + LFE ch, ~384 kbps - Гаврилов
Аудио#2: 48 kHz, AC3 Dolby Digital, 2/0 (L,R) ch, ~192 kbps - Кашкин
За дорожку с переводом Гаврилова спасибо arvideo, за Кашкина ivanco75.
Формат : Matroska
Версия формата : Version 4 / Version 2
Размер файла : 3,38 Гбайт
Продолжительность : 1 ч. 37 м.
Общий поток : 4955 Кбит/сек
Название фильма : Mousehunt.1997.HDDVD.720p.Gavrilov.Kashkin
Дата кодирования : UTC 2015-07-08 01:32:28
Программа кодирования : mkvmerge v8.1.0 ('Psychedelic Postcard') 64bit
Библиотека кодирования : libebml v1.3.1 + libmatroska v1.4.2
DURATION : 01:37:27.776000000
NUMBER_OF_FRAMES : 182743
NUMBER_OF_BYTES : 140346624
_STATISTICS_WRITING_APP : mkvmerge v8.1.0 ('Psychedelic Postcard') 64bit
_STATISTICS_WRITING_DATE_UTC : 2015-07-08 01:32:28
_STATISTICS_TAGS : BPS DURATION NUMBER_OF_FRAMES NUMBER_OF_BYTES
Видео
Идентификатор : 1
Формат : AVC
Формат/Информация : Advanced Video Codec
Профиль формата : [email protected]
Параметр CABAC формата : Да
Параметр ReFrames формата : 5 кадров
Идентификатор кодека : V_MPEG4/ISO/AVC
Продолжительность : 1 ч. 37 м.
Битрейт : 4487 Кбит/сек
Ширина : 1280 пикселей
Высота : 720 пикселей
Соотношение сторон : 16:9
Режим частоты кадров : Постоянный
Частота кадров : 23,976 кадра/сек
Цветовое пространство : YUV
Субдискретизация насыщенности : 4:2:0
Битовая глубина : 8 бит
Тип развёртки : Прогрессивная
Бит/(Пиксели*Кадры) : 0.203
Размер потока : 2,92 Гбайт (86%)
Заголовок : Mousehunt.1997.HDDVD.720p
Библиотека кодирования : x264 core 120
Настройки программы : cabac=1 / ref=5 / deblock=1:-3:-3 / analyse=0x3:0x113 / me=hex / subme=7 / psy=1 / psy_rd=1.00:0.00 / mixed_ref=1 / me_range=16 / chroma_me=1 / trellis=1 / 8x8dct=1 / cqm=0 / deadzone=21,11 / fast_pskip=1 / chroma_qp_offset=-2 / threads=3 / sliced_threads=0 / nr=0 / decimate=1 / interlaced=0 / bluray_compat=0 / constrained_intra=0 / bframes=3 / b_pyramid=2 / b_adapt=2 / b_bias=0 / direct=1 / weightb=1 / open_gop=0 / weightp=2 / keyint=240 / keyint_min=24 / scenecut=40 / intra_refresh=0 / rc_lookahead=10 / rc=2pass / mbtree=1 / bitrate=4487 / ratetol=1.0 / qcomp=0.60 / qpmin=3 / qpmax=69 / qpstep=4 / cplxblur=20.0 / qblur=0.5 / ip_ratio=1.40 / aq=1:1.00
Язык : English
Default : Да
Forced : Нет
Цветовой диапазон : Limited
Основные цвета : BT.709
Характеристики трансфера : BT.709
Коэффициенты матрицы : BT.709
Аудио #1
Идентификатор : 2
Формат : AC-3
Формат/Информация : Audio Coding 3
Расширение режима : CM (complete main)
Параметр Endianness формата : Big
Идентификатор кодека : A_AC3
Продолжительность : 1 ч. 37 м.
Вид битрейта : Постоянный
Битрейт : 384 Кбит/сек
Каналы : 6 каналов
Расположение каналов : Front: L C R, Side: L R, LFE
Частота : 48,0 КГц
Метод сжатия : С потерями
Размер потока : 269 Мбайт (8%)
Заголовок : Gavrilov
Язык : Russian
Default : Да
Forced : Нет
Аудио #2
Идентификатор : 3
Формат : AC-3
Формат/Информация : Audio Coding 3
Профиль формата : Dolby Digital
Расширение режима : CM (complete main)
Параметр Endianness формата : Big
Идентификатор кодека : A_AC3
Продолжительность : 1 ч. 37 м.
Вид битрейта : Постоянный
Битрейт : 192 Кбит/сек
Каналы : 2 канала
Расположение каналов : Front: L R
Частота : 48,0 КГц
Метод сжатия : С потерями
Размер потока : 134 Мбайт (4%)
Заголовок : Kashkin
Язык : Russian
Default : Нет
Forced : Нет
Download / Скачать

Хотите скачать бесплатно? Зарегистрируйтесь на сайте (ссылка на регистрацию). Pirat.ca - самый быстрый торрент трекер в рунете!

Как скачивать  ·   Что такое торрент  ·   Рейтинг и ограничения



Последний раз редактировалось: anton966 (2015-07-19 21:30), всего редактировалось 2 раз(а)

anton966 ®

10381

Пост 13-Июл-2015 09:59 (спустя 8 минут)

[Q] 

На тру HDTVRip 720p "кривой". Видео файл фрейм в фрейм с HD DVDRip. А ориг дорожки не совпадают до 135 мс, похоже из DVD без синхронизации всунули.
Сравнение: http://www.screenshotcomparison.com/comparison/133713/picture:0

_________________
" ...потому что во многой мудрости много печали; и кто умножает познания, умножает скорбь" ( Еккл 1:17,18)
[Профиль]  [ЛС] 

maxvel911

Морской Волк

Пост 14-Июл-2015 19:42 (спустя 1 день 9 часов)

[Q] 

Боже мой, это просто чудо) Спасибо.
[Профиль]  [ЛС] 

wirtual

Гроза морей

Пост 14-Июл-2015 21:35 (спустя 1 час 53 минуты)

[Q] 

классный фильм, если кто не смотрел - качайте
"не хуже один дома" и "ползком от гангстеров", примерно та же трюковая тематика Всем качать!!!

_________________
не будешь делиться - останешься одноклеточным
[Профиль]  [ЛС] 

anton966 ®

10381

Пост 15-Июл-2015 01:41 (спустя 4 часа)

[Q] 

maxvel911,
Пожалуйста!

_________________
" ...потому что во многой мудрости много печали; и кто умножает познания, умножает скорбь" ( Еккл 1:17,18)
[Профиль]  [ЛС] 

gross1978

7598

Пост 16-Июл-2015 00:57 (спустя 23 часа)

[Q] 

Антон!
~448 kbps - Гаврилов
там 384kbps

_________________
Употребляйте правильно слова, и вы избавите мир от половины недоразумений (Р.Декарт).
Если у Вас есть переводы в авторском, которых нет в моих раздачах и желание ими поделиться, пишите, добавим:)
[Профиль]  [ЛС] 

anton966 ®

10381

Пост 16-Июл-2015 02:01 (спустя 1 час 4 минуты)

[Q] 

gross1978,
Знаю, спасибо, трафарет, как обычно, от другой раздачи.

_________________
" ...потому что во многой мудрости много печали; и кто умножает познания, умножает скорбь" ( Еккл 1:17,18)
[Профиль]  [ЛС] 

Towelie

Корсар

13

Пост 22-Апр-2017 07:09 (спустя 1 год 9 месяцев)

[Q] 

ребят встаньте на раздачу плз Раздавать будем или как?
[Профиль]  [ЛС] 
Показать сообщения:    
Ответить на тему

Текущее время: Сегодня 21:45

Часовой пояс: GMT + 4



Вы не можете начинать темы
Вы не можете отвечать на сообщения
Вы не можете редактировать свои сообщения
Вы не можете удалять свои сообщения
Вы не можете голосовать в опросах
Вы не можете прикреплять файлы к сообщениям
Вы не можете скачивать файлы

▼ Вниз