Уважаемый Гость!
Вы можете поддержать проект и зарегистрироваться у наших партнеров - онлайн-стратегия MyLands. При регистрации в игре Вы получите код, который сможете активировать после регистрации на pirat.ca и получить 1000 дублонов.

Ваш код:
d8ccaa030dccd7b7637b390e61c3a4a60156072a
 
     

Разборки в маленьком Токио / Showdown in Little Tokyo (Марк Л. Лестер / Mark L. Lester) [1991 г., боевик, BDRip, 720p] Dub (R5, Варус) + MVO (ВГТРК) + DVO (НТВ) + AVO (Гаврилов, Володарский, Кузнецов, Зереницын) + VO (Чадов) + original (Eng) + Sub

Ответить на тему
 
Автор
Сообщение

Пост 09-Авг-2015 23:25

[Q] 

gross1978

-Разборки в маленьком Токио / Showdown in Little Tokyo-- Год выпуска: 1991
Производство: США, Warner Bros. Pictures Co.
Жанр: боевик
Продолжительность: 01:18:22
Перевод 1: Профессиональный (полное дублирование) R5
Перевод 2: Профессиональный (полное дублирование) Варус Видео
Перевод 3: Профессиональный (многоголосый закадровый) ВГТРК
Перевод 4: Профессиональный (двухголосый закадровый) НТВ
Перевод 5: Авторский (одноголосый, закадровый) Гаврилов
Перевод 6: Авторский (одноголосый, закадровый) Володарский
Перевод 7: Авторский (одноголосый, закадровый) Кузнецов
Перевод 8: Авторский (одноголосый, закадровый) Зереницын
Перевод 9: Любительский (одноголосый, закадровый) Чадов
Оригинальный аудиопоток: английский
Субтитры: русские, английские (форсированные, полные)
Режиссер: Марк Л. Лестер / Mark L. Lester
В ролях: Дольф Лундгрен, Брэндон Ли, Кэри-Хироюки Тагава, Тиа Каррере, Тоширо Обата, Филип Тан, Родни Кагеяма, Эрни Лайвли, Рени Гриффин, Рейд Асато
Описание: Они — лос-анджелесские полицейские, которые перемежают удары с попаданием в газетные заголовки, во время Разборки в маленьком Токио. Герой Дольфа Лундгрена — мускулистый американский самурай, сведущий в восточных традициях. Герой Брэндона Ли — «деревенский увалень», которому предстоит немало драк. Им двоим придется круто на войне против японской наркомафии Лос-Анджелеса.
IMDB , КиноПоиск
Качество видео: BDRip, 720р
Контейнер: MKV
Видео кодек: H.264
Аудио кодек: AC3
Видео: 1280x720, 23.976fps, 7 948 Кb/s, 0.360 bt/px
Аудио 1: 48 kHz, AC3 Dolby Digital, 2/0 (L,R), ~192 kbps - дубляж (R5)
Аудио 2: 48 kHz, AC3 Dolby Digital, 2/0 (L,R), ~192 kbps - дубляж (Варус Видео)
Аудио 3: 48 kHz, AC3 Dolby Digital, 2/0 (L,R), ~192 kbps - ВГТРК
Аудио 4: 48 kHz, AC3 Dolby Digital, 2/0 (L,R), ~192 kbps - НТВ
Аудио 5: 48 kHz, AC3 Dolby Digital, 2/0 (L,R), ~448 kbps - Гаврилов
Аудио 6: 48 kHz, AC3 Dolby Digital, 2/0 (L,R), ~448 kbps - Володарский
Аудио 7: 48 kHz, AC3 Dolby Digital, 2/0 (L,R), ~192 kbps - Кузнецов С.
Аудио 8: 48 kHz, AC3 Dolby Digital, 2/0 (L,R), ~192 kbps - Зереницын
Аудио 9: 48 kHz, AC3 Dolby Digital, 2/0 (L,R), ~192 kbps - Чадов
Аудио 10: 48 kHz, AC3 Dolby Digital, 2/0 (L,R), ~448 kbps - оригинал
Автор рипа:
Исходник: Showdown in Little Tokyo 1991 1080p Blu-ray AVC DTS-HD MA 2.0-PCH by Cupper
За оцифровку дубляжа Варус Видео с лицензионной видеокассеты большое спасибо Eurounion
За запись перевода ВГТРК с телеканалов РЕН-ТВ и Россия 2 большое спасибо Guderom & Eurounion
За запись перевода НТВ с телевидения в 90-х годах через видеомагнитофон и оцифровку с видеокассеты большое спасибо Home Video
За оцифровку Кузнецова с видеокассеты большое спасибо cinemasonar
За оцифровку Зереницына с видеокассеты большое спасибо 21Sepsis
За перевод Л.Володарского огоромное спасибо участникам форума Е180:
Wolf_Larsen, Hattori Hanzo, Nadoelo, denis_mgn_1987, foxlight, motel, xerman13, uchitel538, Kastro, gross1978, GansAn, zetrob, SJC, vik19662007, ilsasss, masta, Партизан, User, STONECOLD, Andrey_Tula, Alex, SoftSlider, Loki1982, Skoped, Джосс, Алекс
Уже одно название, переведённое Кузнецовым именно так, как в заголовке моей рецензии, настраивает на то, что нас ждёт не совсем обычный боевик. В целом он напоминает японское суши — кровавая начинка, завёрнутая в национальный колорит и покрытая доброй порцией хорошего мужского юмора.
Уже с первых минут просмотра зритель знакомится с одним из главных героев Крисом Кеннером, грозой всех бандитов в японском районе Лос-Анджелеса — предпочитающий работать в одиночку, он был не очень-то рад, когда в напарники ему дали деревенского парня, пусть и японца по национальности, но полностью американизировавшегося. Рад ли был этому Джонни Мурата?
Поздравляю.
Желаю удачи.
Кто это?
Мои бывшие напарники.
Тут точно радоваться не от чего — особенно учитывая особенности их знакомства. Как и последующие особенности их совместной работы — предпочитая действовать не языком, а кулаками Крис сразу же даёт понять, какую славу он заработал в Маленьком Токио.
Через центральный вход меня не пустят, придётся здесь заходить.
Я даже догадываюсь, почему.
Но когда настоящее пересекается с прошлым, когда на пути встаёт старый враг — прежние методы уже не помогают. Между ними не может быть мира — только смерть одного из них сможет утолить ненависть и чувство мести, клокочащее в душе. Злодей Йошида не остановится ни перед чем — не ценя жизни тех, кто верно служил ему, он тем более не станет церемониться с врагом.
Принесите мне голову полицейского-блондина. Только так вы сможете искупить свою вину.
Его безжалостность распространялась даже на тех, кто случайно оказался на его пути — как певица из клуба Минако. На какое-то время он мог показаться галантным кавалером — но только на время, почти сразу же показывая своё истинное лицо. Да, как же Кери-Хироюке Тагаве удаются подобные роли — про это уже упоминала в одной из предыдущих рецензий, повторюсь и сейчас.
Точно так же как идеально вписался в роль неподкупного крутого полицейского Дольф Лундгрен — казалось бы, довольно шаблонная роль, и до, и после у него были куда более яркие — но впитавший в себя японскую культуру, обладающий чёрным чувством юмора его персонаж выделяется среди череды других его подобных ролей.
Воин, который разбирается только в чём-то одном никогда не сможет победить, он всегда будет оглядываться.
В роли его напарника отлично выглядит Брендон Ли — и какая жалость, что этот молодой и талантливый актёр так рано ушёл из жизни. Чувствующий себя чужим среди людей одной с ним национальности, он не может взять в толк, зачем это вообще нужно, если самураи и всё подобное давно отошло в прошлое — правда вот драться его научили хорошо, что неоднократно спасало Джонни жизнь.
Я начал заниматься в четыре года.
Ты начал слишком поздно.
О достоинствах фильма можно рассуждать ещё долго — а недостатков в нём я просто не вижу и потому
10 из 10
- А что мы напишем в отчёте?
- Может быть напишем об улучшении отношений, о том, что мы обнаружили банду и уничтожили всех подозреваемых, а после присоединились к фестивалю с целью улучшения отношений с национальным меньшинством.
(Огромное спасибо нашему модератору за Супер-рецензию.)
Общее
Уникальный идентификатор : 214280433841257593590941328040869614882 (0xA134E9102DBBFA2AB02AD46D273DD522)
Полное имя : F:\Фильмы архив\__по актерам\Дольф Лундгрэн\Разборки в маленьком Токио (Showdown in Little Tokyo, 1991, BDRip, 720p) 2dub-pm-p2-Gavrilov-Volodarsky-Kuznecov-Zerenizin-Chadov-eng.mkv
Формат : Matroska
Версия формата : Version 2
Размер файла : 5,94 Гбайт
Продолжительность : 1 ч. 18 м.
Общий поток : 10,9 Мбит/сек
Название фильма : rip by Gross
Дата кодирования : UTC 2015-08-09 14:03:32
Программа кодирования : mkvmerge v4.7.0 ('Just Like You Imagined') сборка от Apr 21 2011 01:13:14
Библиотека кодирования : libebml v1.2.0 + libmatroska v1.1.0
Видео
Идентификатор : 1
Формат : AVC
Формат/Информация : Advanced Video Codec
Профиль формата : [email protected]
Параметр CABAC формата : Да
Параметр ReFrames формата : 9 кадров
Идентификатор кодека : V_MPEG4/ISO/AVC
Продолжительность : 1 ч. 18 м.
Битрейт : 7948 Кбит/сек
Ширина : 1280 пикселей
Высота : 720 пикселей
Соотношение сторон : 16:9
Режим частоты кадров : Постоянный
Частота кадров : 23,976 кадра/сек
Цветовое пространство : YUV
Субдискретизация насыщенности : 4:2:0
Битовая глубина : 8 бит
Тип развёртки : Прогрессивная
Бит/(Пиксели*Кадры) : 0.360
Размер потока : 4,35 Гбайт (73%)
Библиотека кодирования : x264 core 142 r2431 ac76440
Настройки программы : cabac=1 / ref=9 / deblock=1:0:0 / analyse=0x3:0x133 / me=umh / subme=11 / psy=1 / psy_rd=1.05:0.20 / mixed_ref=1 / me_range=32 / chroma_me=1 / trellis=2 / 8x8dct=1 / cqm=0 / deadzone=21,11 / fast_pskip=0 / chroma_qp_offset=-3 / threads=9 / lookahead_threads=2 / sliced_threads=0 / nr=0 / decimate=1 / interlaced=0 / bluray_compat=0 / constrained_intra=0 / bframes=9 / b_pyramid=2 / b_adapt=2 / b_bias=0 / direct=1 / weightb=1 / open_gop=0 / weightp=2 / keyint=250 / keyint_min=23 / scenecut=40 / intra_refresh=0 / rc=crf / mbtree=0 / crf=18.0 / qcomp=0.60 / qpmin=0 / qpmax=69 / qpstep=4 / ip_ratio=1.40 / pb_ratio=1.30 / aq=1:1.00
Язык : English
Default : Да
Forced : Нет
Аудио #1
Идентификатор : 2
Формат : AC-3
Формат/Информация : Audio Coding 3
Расширение режима : CM (complete main)
Параметр Endianness формата : Big
Идентификатор кодека : A_AC3
Продолжительность : 1 ч. 18 м.
Вид битрейта : Постоянный
Битрейт : 192 Кбит/сек
Каналы : 2 канала
Расположение каналов : Front: L R
Частота : 48,0 КГц
Битовая глубина : 16 бит
Метод сжатия : С потерями
Размер потока : 108 Мбайт (2%)
Заголовок : dub (R5)
Язык : Russian
Default : Да
Forced : Да
Аудио #2
Идентификатор : 3
Формат : AC-3
Формат/Информация : Audio Coding 3
Расширение режима : CM (complete main)
Параметр Endianness формата : Big
Идентификатор кодека : A_AC3
Продолжительность : 1 ч. 18 м.
Вид битрейта : Постоянный
Битрейт : 192 Кбит/сек
Каналы : 2 канала
Расположение каналов : Front: L R
Частота : 48,0 КГц
Битовая глубина : 16 бит
Метод сжатия : С потерями
Размер потока : 108 Мбайт (2%)
Заголовок : dub (Varus-Video)
Язык : Russian
Default : Нет
Forced : Нет
Аудио #3
Идентификатор : 4
Формат : AC-3
Формат/Информация : Audio Coding 3
Расширение режима : CM (complete main)
Параметр Endianness формата : Big
Идентификатор кодека : A_AC3
Продолжительность : 1 ч. 18 м.
Вид битрейта : Постоянный
Битрейт : 192 Кбит/сек
Каналы : 2 канала
Расположение каналов : Front: L R
Частота : 48,0 КГц
Битовая глубина : 16 бит
Метод сжатия : С потерями
Размер потока : 108 Мбайт (2%)
Заголовок : pm (VGTRK)
Язык : Russian
Default : Нет
Forced : Нет
Аудио #4
Идентификатор : 5
Формат : AC-3
Формат/Информация : Audio Coding 3
Расширение режима : CM (complete main)
Параметр Endianness формата : Big
Идентификатор кодека : A_AC3
Продолжительность : 1 ч. 18 м.
Вид битрейта : Постоянный
Битрейт : 192 Кбит/сек
Каналы : 2 канала
Расположение каналов : Front: L R
Частота : 48,0 КГц
Битовая глубина : 16 бит
Метод сжатия : С потерями
Размер потока : 108 Мбайт (2%)
Заголовок : p2 (NTV)
Язык : Russian
Default : Нет
Forced : Нет
Аудио #5
Идентификатор : 6
Формат : AC-3
Формат/Информация : Audio Coding 3
Расширение режима : CM (complete main)
Параметр Endianness формата : Big
Идентификатор кодека : A_AC3
Продолжительность : 1 ч. 18 м.
Вид битрейта : Постоянный
Битрейт : 448 Кбит/сек
Каналы : 2 канала
Расположение каналов : Front: L R
Частота : 48,0 КГц
Битовая глубина : 16 бит
Метод сжатия : С потерями
Размер потока : 251 Мбайт (4%)
Заголовок : A1 (Gavrilov)
Язык : Russian
Default : Нет
Forced : Нет
Аудио #6
Идентификатор : 7
Формат : AC-3
Формат/Информация : Audio Coding 3
Расширение режима : CM (complete main)
Параметр Endianness формата : Big
Идентификатор кодека : A_AC3
Продолжительность : 1 ч. 18 м.
Вид битрейта : Постоянный
Битрейт : 448 Кбит/сек
Каналы : 2 канала
Расположение каналов : Front: L R
Частота : 48,0 КГц
Битовая глубина : 16 бит
Метод сжатия : С потерями
Размер потока : 251 Мбайт (4%)
Заголовок : A1 (Volodarsky)
Язык : Russian
Default : Нет
Forced : Нет
Аудио #7
Идентификатор : 8
Формат : AC-3
Формат/Информация : Audio Coding 3
Расширение режима : CM (complete main)
Параметр Endianness формата : Big
Идентификатор кодека : A_AC3
Продолжительность : 1 ч. 18 м.
Вид битрейта : Постоянный
Битрейт : 192 Кбит/сек
Каналы : 2 канала
Расположение каналов : Front: L R
Частота : 48,0 КГц
Битовая глубина : 16 бит
Метод сжатия : С потерями
Размер потока : 108 Мбайт (2%)
Заголовок : A1 (S.Kuznecov)
Язык : Russian
Default : Нет
Forced : Нет
Аудио #8
Идентификатор : 9
Формат : AC-3
Формат/Информация : Audio Coding 3
Расширение режима : CM (complete main)
Параметр Endianness формата : Big
Идентификатор кодека : A_AC3
Продолжительность : 1 ч. 18 м.
Вид битрейта : Постоянный
Битрейт : 192 Кбит/сек
Каналы : 2 канала
Расположение каналов : Front: L R
Частота : 48,0 КГц
Битовая глубина : 16 бит
Метод сжатия : С потерями
Размер потока : 108 Мбайт (2%)
Заголовок : A1 (Belov / Zerenizin)
Язык : Russian
Default : Нет
Forced : Нет
Аудио #9
Идентификатор : 10
Формат : AC-3
Формат/Информация : Audio Coding 3
Расширение режима : CM (complete main)
Параметр Endianness формата : Big
Идентификатор кодека : A_AC3
Продолжительность : 1 ч. 18 м.
Вид битрейта : Постоянный
Битрейт : 192 Кбит/сек
Каналы : 2 канала
Расположение каналов : Front: L R
Частота : 48,0 КГц
Битовая глубина : 16 бит
Метод сжатия : С потерями
Размер потока : 108 Мбайт (2%)
Заголовок : L1 (Chadov)
Язык : Russian
Default : Нет
Forced : Нет
Аудио #10
Идентификатор : 11
Формат : AC-3
Формат/Информация : Audio Coding 3
Расширение режима : CM (complete main)
Параметр Endianness формата : Big
Идентификатор кодека : A_AC3
Продолжительность : 1 ч. 18 м.
Вид битрейта : Постоянный
Битрейт : 448 Кбит/сек
Каналы : 2 канала
Расположение каналов : Front: L R
Частота : 48,0 КГц
Битовая глубина : 16 бит
Метод сжатия : С потерями
Размер потока : 251 Мбайт (4%)
Заголовок : original
Язык : Russian
Default : Нет
Forced : Нет
Текст #1
Идентификатор : 12
Формат : UTF-8
Идентификатор кодека : S_TEXT/UTF8
Идентификатор кодека/Информация : UTF-8 Plain Text
Язык : Russian
Default : Нет
Forced : Нет
Текст #2
Идентификатор : 13
Формат : UTF-8
Идентификатор кодека : S_TEXT/UTF8
Идентификатор кодека/Информация : UTF-8 Plain Text
Заголовок : forsed
Язык : English
Default : Нет
Forced : Нет
Текст #3
Идентификатор : 14
Формат : UTF-8
Идентификатор кодека : S_TEXT/UTF8
Идентификатор кодека/Информация : UTF-8 Plain Text
Язык : English
Default : Нет
Forced : Нет
x264 [info]: frame I:1018 Avg QP:16.84 size:139502
x264 [info]: frame P:23347 Avg QP:17.61 size: 69034
x264 [info]: frame B:88363 Avg QP:19.90 size: 34423
x264 [info]: consecutive B-frames: 1.8% 2.5% 7.8% 13.0% 17.3% 47.0% 7.0% 1.7% 1.2% 0.7%
x264 [info]: mb I I16..4: 12.7% 74.5% 12.8%
x264 [info]: mb P I16..4: 1.9% 29.0% 2.1% P16..4: 23.3% 31.4% 10.2% 1.6% 0.1% skip: 0.3%
x264 [info]: mb B I16..4: 0.1% 6.6% 0.1% B16..8: 39.2% 24.7% 4.3% direct: 7.7% skip:17.4% L0:42.8% L1:46.0% BI:11.2%
x264 [info]: 8x8 transform intra:90.5% inter:52.0%
x264 [info]: coded y,uvDC,uvAC intra: 98.9% 83.5% 59.5% inter: 43.4% 23.5% 3.4%
x264 [info]: i16 v,h,dc,p: 4% 4% 32% 60%
x264 [info]: i8 v,h,dc,ddl,ddr,vr,hd,vl,hu: 9% 8% 14% 10% 13% 12% 11% 11% 13%
x264 [info]: i4 v,h,dc,ddl,ddr,vr,hd,vl,hu: 9% 7% 4% 10% 16% 15% 14% 13% 13%
x264 [info]: i8c dc,h,v,p: 37% 25% 19% 18%
x264 [info]: Weighted P-Frames: Y:20.2% UV:16.4%
x264 [info]: ref P L0: 42.3% 8.5% 20.1% 7.9% 6.9% 4.5% 4.4% 2.3% 2.5% 0.5% 0.1%
x264 [info]: ref B L0: 76.2% 11.2% 5.1% 2.8% 1.9% 1.6% 0.9% 0.3%
x264 [info]: ref B L1: 93.5% 6.5%
x264 [info]: kb/s:8159.47
encoded 112728 frames, 2.22 fps, 8159.47 kb/s
- -
Download / Скачать

Хотите скачать бесплатно? Зарегистрируйтесь на сайте (ссылка на регистрацию). Pirat.ca - самый быстрый торрент трекер в рунете!

Как скачивать  ·   Что такое торрент  ·   Рейтинг и ограничения

Дядя Витя

58950

Пост 10-Авг-2015 11:35 (спустя 12 часов)

[Q] 


_________________
?
[Профиль]  [ЛС] 

ToRiR

Корсар

Пост 29-Янв-2017 01:22 (спустя 1 год 5 месяцев)

[Q] 

Отличный фильм..Еще и сын Брюса Ли засветился..Жаль,что ушел так рано,талантливый был парнишка,Беглый огонь с ним оочень нравится и по сей день
[Профиль]  [ЛС] 
Показать сообщения:    
Ответить на тему

Текущее время: Сегодня 18:00

Часовой пояс: GMT + 4



Вы не можете начинать темы
Вы не можете отвечать на сообщения
Вы не можете редактировать свои сообщения
Вы не можете удалять свои сообщения
Вы не можете голосовать в опросах
Вы не можете прикреплять файлы к сообщениям
Вы не можете скачивать файлы

▼ Вниз