Уважаемый Гость!
Вы можете поддержать проект и зарегистрироваться у наших партнеров - онлайн-стратегия MyLands. При регистрации в игре Вы получите код, который сможете активировать после регистрации на pirat.ca и получить 1000 дублонов.

Ваш код:
1cb31d474663a530a0b2c9ac4dc0f8a69dae398a
 
     

Русалочка (Иван Аксенчук) [1968 г., Мультфильм, DVDRip]

Ответить на тему
 
Автор
Сообщение

Пост 26-Янв-2012 23:50

[Q] 

erchine

Русалочка
Год выпуска: 1968
Производство: СССР, Союзмультфильм
Жанр: Мультфильм
Продолжительность: 00:27:30
Режиссер: Иван Аксенчук
Роли озвучивали: Юлия Юльская, Роза Макагонова, Анатолий Папанов, Владимир Трошин, Лидия Королева, Нина Гуляева
Описание
По мотивам сказки Г. Андерсена. Фильм о любви и дружбе. Русалочка влюбляется в прекрасного принца и спасает его от гибели. Чтобы быть с ним рядом Русалочка лишается своего голоса в обмен на человеческое обличье.
КиноПоиск
Источник/Качество: DVDRip
Формат: AVI
Видео кодек: XviD
Аудио кодек: AC3
Видео: Xvid 704x512 25.00fps 1503 Kbps
Аудио 1: Dolby AC3 48000Hz 6ch 448kbps
Аудио 2: Dolby AC3 48000Hz mono 224kbps
General
Complete name : F:\Rusalochka.1968.XviD.DVDRip.avi
Format : AVI
Format/Info : Audio Video Interleave
File size : 431 MiB
Duration : 27mn 30s
Overall bit rate : 2 190 Kbps
Writing application : VirtualDubModRus 1.5.10.2 (build 2542/release)
Writing library : VirtualDubMod build 2542/release
Video
ID : 0
Format : MPEG-4 Visual
Format profile : Advanced [email protected]
Format settings, BVOP : Yes
Format settings, QPel : No
Format settings, GMC : No warppoints
Format settings, Matrix : Default (MPEG)
Muxing mode : Packed bitstream
Codec ID : XVID
Codec ID/Hint : XviD
Duration : 27mn 30s
Bit rate : 1 503 Kbps
Width : 704 pixels
Height : 512 pixels
Display aspect ratio : 1.375
Frame rate : 25.000 fps
Resolution : 8 bits
Colorimetry : 4:2:0
Scan type : Progressive
Bits/(Pixel*Frame) : 0.167
Stream size : 296 MiB (69%)
Writing library : XviD 1.2.0.dev47 (UTC 2006-11-01)
Audio #1
ID : 1
Format : AC-3
Format/Info : Audio Coding 3
Format_Settings_ModeExtension : CM (complete main)
Codec ID : 2000
Duration : 27mn 30s
Bit rate mode : Constant
Bit rate : 448 Kbps
Channel(s) : 6 channels
Channel positions : Front: L C R, Side: L R, LFE
Sampling rate : 48.0 KHz
Stream size : 88.1 MiB (20%)
Alignment : Split accross interleaves
Interleave, duration : 40 ms (1.00 video frame)
Interleave, preload duration : 500 ms
Audio #2
ID : 2
Format : AC-3
Format/Info : Audio Coding 3
Format_Settings_ModeExtension : CM (complete main)
Codec ID : 2000
Duration : 27mn 30s
Bit rate mode : Constant
Bit rate : 224 Kbps
Channel(s) : 1 channel
Channel positions : Front: C
Sampling rate : 48.0 KHz
Stream size : 44.1 MiB (10%)
Alignment : Split accross interleaves
Interleave, duration : 40 ms (1.00 video frame)
Interleave, preload duration : 500 ms
Download / Скачать

Хотите скачать бесплатно? Зарегистрируйтесь на сайте (ссылка на регистрацию). Pirat.ca - самый быстрый торрент трекер в рунете!

Как скачивать  ·   Что такое торрент  ·   Рейтинг и ограничения

Пост 27-Янв-2012 00:10 (спустя 19 минут)

Топик был перенесен из форума Мультипликация в форум Отечественные короткометражные мультфильмы

zyyx
 

ksg111ban

Гроза морей

Пост 27-Янв-2012 10:07 (спустя 10 часов)

[Q] 

Спасибо.

_________________
[Профиль]  [ЛС] 

CHARLI2236

1186

Пост 10-Апр-2012 14:21 (спустя 2 месяца 14 дней)

[Q] 

спасибо

_________________
[Профиль]  [ЛС] 
Показать сообщения:    
Ответить на тему

Текущее время: Сегодня 23:25

Часовой пояс: GMT + 4



Вы не можете начинать темы
Вы не можете отвечать на сообщения
Вы не можете редактировать свои сообщения
Вы не можете удалять свои сообщения
Вы не можете голосовать в опросах
Вы не можете прикреплять файлы к сообщениям
Вы не можете скачивать файлы

▼ Вниз