ML
     
  Уважаемый Гость!
Вы можете поддержать проект и зарегистрироваться у наших партнеров - онлайн-стратегия MyLands. При регистрации в игре Вы получите код, который сможете активировать после регистрации на pirat.ca и получить 1000 дублонов.

Ваш код:
8de53b2f244b5f2548f7aa649e07fa1be6dc6759
 
     

Лига Чемпионов 2015-2016 / Вольфсбург (Германия) - Манчестер Юнайтед (Англия) / Групповой этап / 6-й тур / НТВ+ Футбол HD [08.12.2015 г., Футбол, HDTVRip]

Ответить на тему
 
Автор
Сообщение

Пост 09-Дек-2015 17:14

[Q] 

ribi

-Вольфсбург (Германия) - Манчестер Юнайтед (Англия)-- Год выпуска: 08.12.2015 г.
Вид спорта: Футбол
Продолжительность: 01:46:40
Комментарий: Профессиональный (одноголосый, закадровый)
Комментатор: Дементьев
Язык комментариев: русский
Автор рипа / записи: Papai720p-
Качество видео: HDTVRip
Контейнер: MKV
Видео кодек: H.264
Аудио кодек: AC3
Видео: 1280х720 (16/9), 50,000fps, 4500 кб/с
Аудио: 192 Kbps, 48 KHz, 2 channels
Video
ID : 1
Format : AVC
Format/Info : Advanced Video Codec
Format profile : [email protected]
Format settings, CABAC : Yes
Format settings, ReFrames : 4 frames
Codec ID : V_MPEG4/ISO/AVC
Duration : 55mn 30s
Bit rate : 4 500 Kbps
Width : 1 280 pixels
Height : 720 pixels
Display aspect ratio : 16:9
Frame rate mode : Variable
Frame rate : 50.000 fps
Color space : YUV
Chroma subsampling : 4:2:0
Bit depth : 8 bits
Scan type : Progressive
Bits/(Pixel*Frame) : 0.098
Stream size : 1.71 GiB (94%)
Writing library : x264 core 140 r2377 1ca7bb9
Encoding settings : cabac=1 / ref=2 / deblock=1:0:0 / analyse=0x3:0x113 / me=hex / subme=6 / psy=1 / psy_rd=1.00:0.00 / mixed_ref=1 / me_range=16 / chroma_me=1 / trellis=1 / 8x8dct=1 / cqm=0 / deadzone=21,11 / fast_pskip=1 / chroma_qp_offset=-2 / threads=6 / lookahead_threads=1 / sliced_threads=0 / nr=0 / decimate=1 / interlaced=0 / bluray_compat=0 / constrained_intra=0 / bframes=3 / b_pyramid=2 / b_adapt=1 / b_bias=0 / direct=1 / weightb=1 / open_gop=0 / weightp=1 / keyint=250 / keyint_min=25 / scenecut=40 / intra_refresh=0 / rc_lookahead=30 / rc=abr / mbtree=1 / bitrate=4500 / ratetol=1.0 / qcomp=0.60 / qpmin=0 / qpmax=69 / qpstep=4 / ip_ratio=1.40 / aq=1:1.00
Language : English
Audio
ID : 2
Format : AC-3
Format/Info : Audio Coding 3
Mode extension : CM (complete main)
Codec ID : A_AC3
Duration : 55mn 30s
Bit rate mode : Constant
Bit rate : 192 Kbps
Channel(s) : 2 channels
Channel positions : Front: L R
Sampling rate : 48.0 KHz
Bit depth : 16 bits
Compression mode : Lossy
Delay relative to video : -1s 385ms
Stream size : 76.2 MiB (4%)
Language : Russian
Download / Скачать

Хотите скачать бесплатно? Зарегистрируйтесь на сайте (ссылка на регистрацию). Pirat.ca - самый быстрый торрент трекер в рунете!

Как скачивать  ·   Что такое торрент  ·   Рейтинг и ограничения

Пост 01-Фев-2016 21:40 (спустя 1 месяц 23 дня)

Топик был перенесен из форума Футбольные матчи и Видео в форум Архив (Спортивные фильмы и передачи)
Причина переноса: Полного источника не было: 1 месяц 18 дней
ribi
 
Показать сообщения:    
Ответить на тему

Текущее время: Сегодня 10:44

Часовой пояс: GMT + 4



Вы не можете начинать темы
Вы не можете отвечать на сообщения
Вы не можете редактировать свои сообщения
Вы не можете удалять свои сообщения
Вы не можете голосовать в опросах
Вы не можете прикреплять файлы к сообщениям
Вы не можете скачивать файлы

▼ Вниз