Уважаемый Гость!
Вы можете поддержать проект и зарегистрироваться у наших партнеров - онлайн-стратегия MyLands. При регистрации в игре Вы получите код, который сможете активировать после регистрации на pirat.ca и получить 1000 дублонов.

Ваш код:
29ac61de6872976b363ad896be24c19f64f7d962
 
     

Последний охотник на ведьм / The Last Witch Hunter (Брек Эйснер / Breck Eisner) [2015 г., фэнтези, боевик, приключения, WEB-DLRip-AVC] Dub [iTunes]

Страницы :  1, 2  След.

Ответить на тему
 
Автор
Сообщение

Пост 12-Янв-2016 19:33

[Q] 

aleksey99

--Последний охотник на ведьм / The Last Witch Hunter--«Вечно жить. Вечно убивать»-- Производство: США / Summit Entertainment, Lionsgate Company
Год выпуска: 2015 г.
Жанр: фэнтези, боевик, приключения
Продолжительность: 01:46:26--Мировая премьера: 13 октября 2015
Российская премьера: 29 октября 2015, «Централ Партнершип»--Перевод: Профессиональный (полное дублирование) [iTunes]--Режиссер: Брек Эйснер / Breck Eisner--В ролях: Вин Дизель, Роуз Лесли, Элайджа Вуд, Оулавюр Дарри Оулафссон, Рина Оуэн, Юли Энгельбрехт, Майкл Кейн, Джозеф Гилган, Исаак Де Банколе, Майкл Халсли--Описание: Современный мир скрывает множество секретов, но самым удивительным из них является то, что ведьмы до сих пор живут среди нас. Это злобные сверхъестественные существа, чья цель — наслать на мир смертоносную чуму. Армии охотников на ведьм сражались с ними на протяжении многих веков.
В наши дни остался всего лишь один охотник на ведьм, Колдер, которому однажды удалось убить всемогущую королеву ведьм. Но Колдер еще не знает, что королева воскресла и жаждет отомстить своему убийце…-- --Качество видео: WEB-DLRip-AVC
Контейнер: MKV
Видео кодек: AVC/H.264
Аудио кодек: AC3
Видео: 1024x576, 1905 kbps, 24.000 fps, 0.135 bit/pixel
Аудио: 48 kHz, AC3 Dolby Digital, 3/2 (L,C,R,l,r) + LFE ch, ~384 kbps
Cубтитры: отсутствуют
Общее
Уникальный идентификатор : 214431891257707557457310600918645405156 (0xA152147D886EC1E0B66CB50A4D68F5E4)
Полное имя : H:\Torrent2\The.Last.Witch.Hunter.2015.D.WEB-DLRip.AVC.mkv
Формат : Matroska
Версия формата : Version 4 / Version 2
Размер файла : 1,70 Гбайт
Продолжительность : 1 ч. 46 м.
Общий поток : 2289 Кбит/сек
Дата кодирования : UTC 2016-01-12 15:23:52
Программа кодирования : mkvmerge v7.9.0 ('Birds') 32bit
Библиотека кодирования : libebml v1.3.1 + libmatroska v1.4.2
Видео
Идентификатор : 1
Формат : AVC
Формат/Информация : Advanced Video Codec
Профиль формата : [email protected]
Параметр CABAC формата : Да
Параметр ReFrames формата : 10 кадров
Идентификатор кодека : V_MPEG4/ISO/AVC
Продолжительность : 1 ч. 46 м.
Битрейт : 1905 Кбит/сек
Ширина : 1024 пикселя
Высота : 576 пикселей
Соотношение сторон : 16:9
Режим частоты кадров : Постоянный
Частота кадров : 24,000 кадра/сек
Цветовое пространство : YUV
Субдискретизация насыщенности : 4:2:0
Битовая глубина : 8 бит
Тип развёртки : Прогрессивная
Бит/(Пиксели*Кадры) : 0.135
Размер потока : 1,42 Гбайт (83%)
Библиотека кодирования : x264 core 133 r2334 a3ac64b
Настройки программы : cabac=1 / ref=10 / deblock=1:-2:-2 / analyse=0x3:0x113 / me=umh / subme=10 / psy=1 / psy_rd=1.05:0.15 / mixed_ref=1 / me_range=32 / chroma_me=1 / trellis=2 / 8x8dct=1 / cqm=0 / deadzone=21,11 / fast_pskip=0 / chroma_qp_offset=-3 / threads=12 / lookahead_threads=2 / sliced_threads=0 / nr=0 / decimate=0 / interlaced=0 / bluray_compat=0 / constrained_intra=0 / bframes=9 / b_pyramid=2 / b_adapt=2 / b_bias=0 / direct=3 / weightb=1 / open_gop=0 / weightp=2 / keyint=240 / keyint_min=24 / scenecut=40 / intra_refresh=0 / rc_lookahead=40 / rc=2pass / mbtree=0 / bitrate=1905 / ratetol=1.0 / qcomp=0.60 / qpmin=0 / qpmax=51 / qpstep=4 / cplxblur=20.0 / qblur=0.5 / vbv_maxrate=50000 / vbv_bufsize=62500 / nal_hrd=none / ip_ratio=1.40 / pb_ratio=1.30 / aq=1:1.00
Default : Да
Forced : Нет
Цветовой диапазон : Limited
Основные цвета : BT.709
Характеристики трансфера : BT.709
Коэффициенты матрицы : BT.709
Аудио
Идентификатор : 2
Формат : AC-3
Формат/Информация : Audio Coding 3
Расширение режима : CM (complete main)
Параметр Endianness формата : Big
Идентификатор кодека : A_AC3
Продолжительность : 1 ч. 46 м.
Вид битрейта : Постоянный
Битрейт : 384 Кбит/сек
Каналы : 6 каналов
Расположение каналов : Front: L C R, Side: L R, LFE
Частота : 48,0 КГц
Частота кадров : 31,250 кадров/сек (1536 spf)
Метод сжатия : С потерями
Размер потока : 292 Мбайт (17%)
Язык : Russian
Default : Да
Forced : Нет
Трейлер
Download / Скачать

Хотите скачать бесплатно? Зарегистрируйтесь на сайте (ссылка на регистрацию). Pirat.ca - самый быстрый торрент трекер в рунете!

Как скачивать  ·   Что такое торрент  ·   Рейтинг и ограничения

Alex-dix

Флибустьер

Пост 12-Янв-2016 20:28 (спустя 54 минуты)

[Q] 

Спасибо! Спасибо!!! Супер!
[Профиль]  [ЛС] 

medved218

Корсар

Пост 12-Янв-2016 21:10 (спустя 42 минуты)

[Q] 

фарсаж с мечём? !COOL!
[Профиль]  [ЛС] 

ozu

Лоцман

Пост 12-Янв-2016 21:28 (спустя 17 минут)

[Q] 

Разок посмотреть сойдет.
[Профиль]  [ЛС] 

shelby290

Флибустьер

Пост 12-Янв-2016 22:18 (спустя 50 минут)

[Q] 

Неплохо. На любителя
[Профиль]  [ЛС] 

кир222

Штурман

Пост 13-Янв-2016 00:50 (спустя 2 часа 31 минута)

[Q] 

тормозит картинка иногда- пробовал на разных проигрователях
[Профиль]  [ЛС] 

Slavkovich_

Пост 13-Янв-2016 01:52 (спустя 1 час 1 минута)

[Q] 

728830тормозит картинка иногда- пробовал на разных проигрователях
ПОПРОБУЙ ОСТАНОВИТЬ ТОРРЕНТ, ПРОСТО
[Профиль]  [ЛС] 

янка-сан

Гроза морей

Пост 13-Янв-2016 06:45 (спустя 4 часа)

[Q] 

по мне так - прилично. и не тормозит ничего. Лови бочку Автору респект!!!
[Профиль]  [ЛС] 

pdb08

Легенда

72

Пост 13-Янв-2016 10:57 (спустя 4 часа)

[Q] 

728830тормозит картинка иногда- пробовал на разных проигрователях[/quot   Картинка не тормозит. Сам фильм - на любителя.
Добавлено спустя 1 минута 39 секунд:
728830тормозит картинка иногда- пробовал на разных проигрователях
Картинка не тормозит. Сам фильм - на любителя.

_________________
[Профиль]  [ЛС] 

smartpeople

Шкипер

Пост 14-Янв-2016 07:20 (спустя 20 часов)

[Q] 

дизеля даже графон не помог......хрень полнейшая...посмотрел от делать нечего....одним словом шляпа.сюжет просто шляпа.
[Профиль]  [ЛС] 

vinylovi4

Гроза морей

Пост 14-Янв-2016 09:08 (спустя 1 час 48 минут)

[Q] 

посмотрел и забыл)
[Профиль]  [ЛС] 

evasby

Лоцман

Пост 14-Янв-2016 15:07 (спустя 5 часов)

[Q] 

Сюжет слабоват, дубляж по-моему неверно передаёт интонации. Ну и мрачности не хватает))
Актёры норм. В целом понравился)
[Профиль]  [ЛС] 

salavat1234

Гроза морей

Пост 15-Янв-2016 17:18 (спустя 1 день 2 часа)

[Q] 

Лови бочку На любителя
[Профиль]  [ЛС] 

rent89

Шкипер

Пост 16-Янв-2016 01:53 (спустя 8 часов)

[Q] 

Спасибо!!! Попробуем глянуть) Лови бочку
[Профиль]  [ЛС] 

De Puta Madre

Морской Волк

Пост 16-Янв-2016 10:49 (спустя 8 часов)

[Q] 

Фильм вообще не понравился, как обычно, идея класс - реализация полное Г....
Осилил с третьего раза...
[Профиль]  [ЛС] 

Svet8312

Лоцман

Пост 16-Янв-2016 11:38 (спустя 49 минут)

[Q] 

Фильм вообще не зацепил! Даже на один раз и то разочаровал. Актеры хорошие, сюжет в принципе нормальный, можно было бы снять лучше, интереснее.
[Профиль]  [ЛС] 

Relax

Морской Волк

Пост 16-Янв-2016 17:19 (спустя 5 часов)

[Q] 

спасибо раздающему
[Профиль]  [ЛС] 

Сабиров

Штурман

Пост 17-Янв-2016 14:27 (спустя 21 час)

[Q] 

Раздающему респект Спасибо!!!
[Профиль]  [ЛС] 

OLEG_PS2009

Флибустьер

Пост 17-Янв-2016 22:49 (спустя 8 часов)

[Q] 

Фильм на любителя!!!!
[Профиль]  [ЛС] 

grosboy

Гроза морей

Пост 18-Янв-2016 17:07 (спустя 18 часов)

[Q] 

Нормальный фильм. На разок глянуть волне сойдет.

_________________
Щастье есть - его не может не быть...
[Профиль]  [ЛС] 

Евгений Чередников

Морской Волк

Пост 29-Янв-2016 21:38 (спустя 11 дней)

[Q] 

Спасибо!!! Глянем

_________________
[Профиль]  [ЛС] 

Zasedatelev

Морской Волк

Пост 30-Янв-2016 15:14 (спустя 17 часов)

[Q] 

Фильм без претензий. Всё тот же Риддик и Торетто убивает ведьм. Снят хорошо, сюжет тоже вполне себе в духе. Разок посмотреть однозначно стоит.
[Профиль]  [ЛС] 

italiano711

Гроза морей

42

Пост 31-Янв-2016 21:35 (спустя 1 день 6 часов)

[Q] 

Снят добротно, но предсказуемо.
[Профиль]  [ЛС] 

moulder

Лоцман

Пост 02-Фев-2016 20:00 (спустя 1 день 22 часа)

[Q] 

Отличный фильм на раз.
[Профиль]  [ЛС] 

sobrat

Шкипер

Пост 03-Фев-2016 13:49 (спустя 17 часов)

[Q] 

Как обычно эффектно, красиво, но без какой либо особой философии, да в принципе и не было запроса, просто красивый фантастический боевик
[Профиль]  [ЛС] 

M4std1e

Корсар

Пост 04-Фев-2016 22:34 (спустя 1 день 8 часов)

[Q] 

Спецэффекты красивые, поглядим. Спасибо!!! Автору респект!!!
[Профиль]  [ЛС] 

omen19911114

Лоцман

Пост 06-Фев-2016 01:00 (спустя 1 день 2 часа)

[Q] 

Фильм - на раз. Но для разнообразия, сойдёт .
[Профиль]  [ЛС] 

fishman

Флибустьер

Пост 09-Фев-2016 19:12 (спустя 3 дня)

[Q] 

Спасибо, Рому отгрузил. af

_________________
|___|___|___|___|___|___|___|__|__
__|__|__|_Биться головой_|___|___|
|___|___|___|__сюда!!___|___|__|__
__|___|___|___|___|___|___|__|__
[Профиль]  [ЛС] 

Раемия

Флибустьер

Пост 30-Мар-2016 19:32 (спустя 1 месяц 21 день)

[Q] 

Мда...Дизелю,кажись пора на заслуженный отдых(((

_________________
Любите кроликов!!!…и они отплатят вам тем же…
[Профиль]  [ЛС] 

RAHAAON

Морской Волк

Пост 08-Янв-2017 15:57 (спустя 9 месяцев 8 дней)

[Q] 

anime79
Пасибки автору!
[Профиль]  [ЛС] 
Показать сообщения:    
Ответить на тему

Текущее время: Сегодня 03:49

Часовой пояс: GMT + 4



Вы не можете начинать темы
Вы не можете отвечать на сообщения
Вы не можете редактировать свои сообщения
Вы не можете удалять свои сообщения
Вы не можете голосовать в опросах
Вы не можете прикреплять файлы к сообщениям
Вы не можете скачивать файлы

▼ Вниз