Уважаемый Гость!
Вы можете поддержать проект и зарегистрироваться у наших партнеров - онлайн-стратегия MyLands. При регистрации в игре Вы получите код, который сможете активировать после регистрации на pirat.ca и получить 1000 дублонов.

Ваш код:
b37e868614b5986b196b50edccc8d7d20ba31134
 
     

(Power Metal) Thornbridge - What Will Prevail - 2016 [FLAC, image+.cue, lossless]

Ответить на тему
 
Автор
Сообщение

Пост 04-Май-2016 03:19

[Q] 

Дядя Вова

Гроза морей

-Thornbridge - What Will Prevail-- Год издания: 2016
Страна: Germany
Жанр: Power Metal
Продолжительность: 00:50:25-Лейбл издания: Massacre Records
Тип альбома: Master
Страна-выпуска диска: Germany
Номер по каталогу: MAS CD0935
Источник (релизер): RMT-Формат: FLAC
Битрейт аудио: lossless
Тип рипа: image+.cue
Наличие сканов в содержимом раздачи: да-
01. Intro
02. Blow Up the Gates of Hell
03. The Dragon's Reborn
04. What Will Prevail
05. Coachman's Curse
06. Symphony of the Battllefield
07. Eternal Life
08. Neverwinter Nights
09. Under the Ice
10. Tower of Lies
11. Galley of Horror
-
Exact Audio Copy V1.1 from 23. June 2015
EAC extraction logfile from 22. March 2016, 0:40
Thornbridge / What Will Prevail
Used drive : ATAPI iHAS122 W Adapter: 2 ID: 0
Read mode : Secure
Utilize accurate stream : Yes
Defeat audio cache : Yes
Make use of C2 pointers : No
Read offset correction : 48
Overread into Lead-In and Lead-Out : No
Fill up missing offset samples with silence : Yes
Delete leading and trailing silent blocks : No
Null samples used in CRC calculations : Yes
Used interface : Installed external ASPI interface
Used output format : User Defined Encoder
Selected bitrate : 1024 kBit/s
Quality : High
Add ID3 tag : No
Command line compressor : C:\Program Files\FLAC\flac.exe
Additional command line options : -V -8 -T "Date=%year%" -T "Genre=%genre%" -T"COMMENT=Ripped by Ilijan" -8 -V %source%
TOC of the extracted CD
Track | Start | Length | Start sector | End sector
---------------------------------------------------------
1 | 0:00.00 | 1:21.22 | 0 | 6096
2 | 1:21.22 | 4:54.45 | 6097 | 28191
3 | 6:15.67 | 4:33.42 | 28192 | 48708
4 | 10:49.34 | 5:31.04 | 48709 | 73537
5 | 16:20.38 | 5:27.51 | 73538 | 98113
6 | 21:48.14 | 2:27.67 | 98114 | 109205
7 | 24:16.06 | 5:02.74 | 109206 | 131929
8 | 29:19.05 | 5:27.07 | 131930 | 156461
9 | 34:46.12 | 5:55.50 | 156462 | 183136
10 | 40:41.62 | 4:42.24 | 183137 | 204310
11 | 45:24.11 | 5:00.27 | 204311 | 226837
Range status and errors
Selected range
Filename D:\ilко\Thornbridge - What Will Prevail.wav
Peak level 97.3 %
Extraction speed 3.9 X
Range quality 99.9 %
Test CRC 6295DFF6
Copy CRC 6295DFF6
Copy OK
No errors occurred
AccurateRip summary
Track 1 cannot be verified as accurate (confidence 1) [165BCA7E], AccurateRip returned [4B93E894] (AR v2)
Track 2 cannot be verified as accurate (confidence 1) [2B2BE484], AccurateRip returned [7CC417D6] (AR v2)
Track 3 cannot be verified as accurate (confidence 1) [AD8C5520], AccurateRip returned [E9A686F4] (AR v2)
Track 4 cannot be verified as accurate (confidence 1) [5FF8396C], AccurateRip returned [69C561DC] (AR v2)
Track 5 cannot be verified as accurate (confidence 1) [0A3A2BD5], AccurateRip returned [361A4FB3] (AR v2)
Track 6 cannot be verified as accurate (confidence 1) [E88CFAD3], AccurateRip returned [DF4310D7] (AR v2)
Track 7 cannot be verified as accurate (confidence 1) [3613D1AC], AccurateRip returned [3A4C4914] (AR v2)
Track 8 cannot be verified as accurate (confidence 1) [FD2B3443], AccurateRip returned [9D249C52] (AR v2)
Track 9 cannot be verified as accurate (confidence 1) [97ED0EA6], AccurateRip returned [32802B68] (AR v2)
Track 10 cannot be verified as accurate (confidence 1) [838E6A89], AccurateRip returned [C3364300] (AR v2)
Track 11 cannot be verified as accurate (confidence 1) [8EDD3731], AccurateRip returned [B00271C5] (AR v2)
No tracks could be verified as accurate
You may have a different pressing from the one(s) in the database
End of status report
---- CUETools DB Plugin V2.1.6
[CTDB TOCID: d5b9af.vFWBzG5GcbvoJFUP060E-] found
Submit result: d5b9af.vFWBzG5GcbvoJFUP060E- has been confirmed
Track | CTDB Status
1 | (6/6) Accurately ripped
2 | (6/6) Accurately ripped
3 | (6/6) Accurately ripped
4 | (6/6) Accurately ripped
5 | (6/6) Accurately ripped
6 | (6/6) Accurately ripped
7 | (6/6) Accurately ripped
8 | (6/6) Accurately ripped
9 | (6/6) Accurately ripped
10 | (6/6) Accurately ripped
11 | (6/6) Accurately ripped
==== Log checksum 48DB47A6EECADC7A86D4E47905BF7CC4A5E4EA9324781077DD0708CCF67AE157 ====
-
REM GENRE Power Metal
REM DATE 2016
REM COMMENT 2016, Germany, First Press, DR6
PERFORMER "Thornbridge"
TITLE "What Will Prevail"
FILE "Thornbridge - What Will Prevail.flac" WAVE
TRACK 01 AUDIO
TITLE "Intro"
FLAGS DCP
INDEX 01 00:00:00
TRACK 02 AUDIO
TITLE "Blow Up the Gates of Hell"
FLAGS DCP
INDEX 01 01:21:22
TRACK 03 AUDIO
TITLE "The Dragon's Reborn"
FLAGS DCP
INDEX 01 06:15:67
TRACK 04 AUDIO
TITLE "What Will Prevail"
FLAGS DCP
INDEX 01 10:49:34
TRACK 05 AUDIO
TITLE "Coachman's Curse"
FLAGS DCP
INDEX 01 16:20:38
TRACK 06 AUDIO
TITLE "Symphony of the Battllefield"
FLAGS DCP
INDEX 01 21:48:14
TRACK 07 AUDIO
TITLE "Eternal Life"
FLAGS DCP
INDEX 01 24:16:06
TRACK 08 AUDIO
TITLE "Neverwinter Nights"
FLAGS DCP
INDEX 01 29:19:05
TRACK 09 AUDIO
TITLE "Under the Ice"
FLAGS DCP
INDEX 01 34:46:12
TRACK 10 AUDIO
TITLE "Tower of Lies"
FLAGS DCP
INDEX 01 40:41:62
TRACK 11 AUDIO
TITLE "Galley of Horror"
FLAGS DCP
INDEX 01 45:24:11
-
-
-Работаю не за Спасибо , а за ИДЕЮ.-
Download / Скачать

Хотите скачать бесплатно? Зарегистрируйтесь на сайте (ссылка на регистрацию). Pirat.ca - самый быстрый торрент трекер в рунете!

Как скачивать  ·   Что такое торрент  ·   Рейтинг и ограничения

julikam

Гроза морей

Пост 04-Май-2016 21:14 (спустя 17 часов)

[Q] 

Шорошо ИДЕЮ. Лови бочку

_________________

Не может быть отремонтировано только то, что не сломано.
[Профиль]  [ЛС] 
Показать сообщения:    
Ответить на тему

Текущее время: Сегодня 15:06

Часовой пояс: GMT + 4



Вы не можете начинать темы
Вы не можете отвечать на сообщения
Вы не можете редактировать свои сообщения
Вы не можете удалять свои сообщения
Вы не можете голосовать в опросах
Вы не можете прикреплять файлы к сообщениям
Вы не можете скачивать файлы

▼ Вниз