ML
     
  Уважаемый Гость!
Вы можете поддержать проект и зарегистрироваться у наших партнеров - онлайн-стратегия MyLands. При регистрации в игре Вы получите код, который сможете активировать после регистрации на pirat.ca и получить 1000 дублонов.

Ваш код:
bd672f7313fbfe09eb877d4da329555d93ca8eed
 
     

Преступник / Criminal (Ариэль Вромен / Ariel Vromen) [2016 г., фантастика, боевик, триллер, драма, криминал, детектив, WEB-DLRip] Dub [iTunes]

Ответить на тему
 
Автор
Сообщение

Пост 12-Июл-2016 07:20

[Q] 

aleksey99

--Преступник / Criminal--«The CIA's last hope is in the mind of a criminal»-- Производство: Великобритания, США, BenderSpink, Campbell Grobman Films, Lionsgate
Год выпуска: 2016 г.
Жанр: фантастика, боевик, триллер, драма, криминал, детектив
Продолжительность: 01:48:37--Мировая премьера: 7 апреля 2016
Российская премьера: 14 апреля 2016, «MEGOGO Distribution»--Перевод: Профессиональный (полное дублирование) [iTunes]--Режиссер: Ариэль Вромен / Ariel Vromen--В ролях: Кевин Костнер, Гэри Олдман, Томми Ли Джонс, Райан Рейнольдс, Элис Ив, Галь Гадот, Хорди Молья, Майкл Питт, Амори Ноласко, Антье Трауэ--Описание: В последней отчаянной попытке остановить катастрофу мирового масштаба генетики осуществляют невероятную операцию по вживлению воспоминаний и умений погибшего оперативника ЦРУ в тело опасного заключенного с надеждой, что тот доведет до конца прерванную миссию агента.-- --Качество видео: WEB-DLRip
Контейнер: AVI
Видео кодек: XviD
Аудио кодек: AC3
Видео: 720x304 (2.37:1), 25 fps, XviD build 50 ~1407 kbps avg, 0.26 bit/pixel
Аудио: 48 kHz, AC3 Dolby Digital, 3/2 (L,C,R,l,r) + LFE ch, ~384 kbps
Cубтитры: отсутствуют.
Общее
Полное имя : H:\Torrent2\PresTUpniK.2O16.D.WEB-DLRip.1400MB.avi
Формат : AVI
Формат/Информация : Audio Video Interleave
Размер файла : 1,37 Гбайт
Продолжительность : 1 ч. 48 м.
Общий поток : 1802 Кбит/сек
Программа кодирования : VirtualDubMod 1.5.10.2 (build 2540/release)
Библиотека кодирования : VirtualDubMod build 2540/release
Видео
Идентификатор : 0
Формат : MPEG-4 Visual
Профиль формата : Advanced [email protected]
Параметр BVOP формата : 2
Параметр QPel формата : Нет
Параметр GMC формата : Без точки перехода
Параметр матрицы формата : Выборочная
Идентификатор кодека : XVID
Идентификатор кодека/Подсказка : XviD
Продолжительность : 1 ч. 48 м.
Битрейт : 1408 Кбит/сек
Ширина : 720 пикселей
Высота : 304 пикселя
Соотношение сторон : 2,35:1
Частота кадров : 25,000 кадров/сек
Цветовое пространство : YUV
Субдискретизация насыщенности : 4:2:0
Битовая глубина : 8 бит
Тип развёртки : Прогрессивная
Метод сжатия : С потерями
Бит/(Пиксели*Кадры) : 0.257
Размер потока : 1,07 Гбайт (78%)
Библиотека кодирования : XviD 1.2.1 (UTC 2008-12-04)
Аудио
Идентификатор : 1
Формат : AC-3
Формат/Информация : Audio Coding 3
Расширение режима : CM (complete main)
Параметр Endianness формата : Big
Идентификатор кодека : 2000
Продолжительность : 1 ч. 48 м.
Вид битрейта : Постоянный
Битрейт : 384 Кбит/сек
Каналы : 6 каналов
Расположение каналов : Front: L C R, Side: L R, LFE
Частота : 48,0 КГц
Частота кадров : 31,250 кадров/сек (1536 spf)
Метод сжатия : С потерями
Размер потока : 298 Мбайт (21%)
Выравнивание : Разделение по промежуткам
Продолжительность промежутка : 40 мс. (1,00 видеокадр)
Время предзагрузки промежутка : 500 мс.
Трейлер
Download / Скачать

Хотите скачать бесплатно? Зарегистрируйтесь на сайте (ссылка на регистрацию). Pirat.ca - самый быстрый торрент трекер в рунете!

Как скачивать  ·   Что такое торрент  ·   Рейтинг и ограничения

гришасемечкин

Флибустьер

1416

Пост 12-Июл-2016 14:42 (спустя 7 часов)

[Q] 

Судя по актёрскому составу фильм может оказаться хорошим! Посмотреть - нужно! Спасибо раздающим!!! Автору - бочка! Лови бочку
[Профиль]  [ЛС] 

fishman

Флибустьер

Пост 12-Июл-2016 15:51 (спустя 1 час 9 минут)

[Q] 

И что, никто ещё не посмотрел, как фильм?
Раздающему респект! Лови бочку

_________________
|___|___|___|___|___|___|___|__|__
__|__|__|_Биться головой_|___|___|
|___|___|___|__сюда!!___|___|__|__
__|___|___|___|___|___|___|__|__
[Профиль]  [ЛС] 

Dead Mazay

Пост 12-Июл-2016 16:38 (спустя 47 минут)

[Q] 

rum
[Профиль]  [ЛС] 

pvm

Флибустьер

Пост 12-Июл-2016 17:37 (спустя 58 минут)

[Q] 

Классный фильм.
[Профиль]  [ЛС] 

tvskit

Гроза морей

Пост 12-Июл-2016 19:15 (спустя 1 час 37 минут)

[Q] 

758719И что, никто ещё не посмотрел, как фильм?
Кино на один раз, но посмотреть стоит.

_________________
[Профиль]  [ЛС] 

Alex270

Шкипер

Пост 13-Июл-2016 07:11 (спустя 11 часов)

[Q] 

Кино так себе. Сценарий очень слабый,до середины интересно смотреть,потом полный бред начинается.
[Профиль]  [ЛС] 

flesh_208

Корсар

Пост 17-Июл-2016 21:01 (спустя 4 дня)

[Q] 

Сказка...но иногда хоЦа)) На любителя
[Профиль]  [ЛС] 

OLEG_PS2009

Флибустьер

Пост 19-Июл-2016 19:39 (спустя 1 день 22 часа)

[Q] 

Мне понравился!!!! Всем качать!!! Пиратка рулит!
[Профиль]  [ЛС] 

Ryzhoff

Штурман

Пост 27-Июл-2016 14:11 (спустя 7 дней)

[Q] 

Ничо так На любителя
[Профиль]  [ЛС] 

gekainthenet

Морской Волк

Пост 04-Авг-2016 00:07 (спустя 7 дней)

[Q] 

Фильм понравился Спасибо!!!
[Профиль]  [ЛС] 

ysd

Корсар

Пост 06-Авг-2016 22:22 (спустя 2 дня 22 часа)

[Q] 

Актеры хорошие - играют нормально, носам фильм - даже не знаю как - хуже, чем актеры.
[Профиль]  [ЛС] 

Kaza4ishe

Штурман

Пост 07-Авг-2016 00:39 (спустя 2 часа 16 минут)

[Q] 

Спасибо!!! за раздачу Лови бочку
[Профиль]  [ЛС] 

ТАЛИ

Флибустьер

Пост 21-Авг-2016 10:31 (спустя 14 дней)

[Q] 

Не надо ждать от фильма чего-то сверхоригинального. Это просто очень качественный боевичок с отличным актерским составом. Смотрится на одном дыхании, без желания перемотать (что в последнее время редкость).
У Рейнольдса, похоже, уже амплуа переселенца в другие тела какое-то сложилось:)
[Профиль]  [ЛС] 

Клайд

Корсар

Пост 25-Авг-2016 17:05 (спустя 4 дня)

[Q] 

Спасибо. будем смотреть !!!
[Профиль]  [ЛС] 

olmed

Гроза морей

Пост 11-Янв-2017 13:33 (спустя 4 месяца 16 дней)

[Q] 

Не плохой фильм.
[Профиль]  [ЛС] 

andr.63

Корсар

Пост 11-Янв-2017 22:23 (спустя 8 часов)

[Q] 

Загадка - как можно в дублированном фильме определить что актеры "играют нормально" ?

_________________
"Писать о музыке - все равно что танцевать архитектуру"
[Профиль]  [ЛС] 

realyu

Корсар

Пост 23-Янв-2017 18:35 (спустя 11 дней)

[Q] 

Костнер брутален, Олдман никакой, а Томми Ли Джонс усох. Сюжет примитивен, виден тыщу раз, ляп на ляпе, в качестве "изюминки" добавлена наитупейшая розовосопливая любовная линия. Заставляя себя можно посмотреть, но не до конца - количество бреда и соплей в финале зашкаливает. Шлак.
[Профиль]  [ЛС] 

ctiven13

Лоцман

Пост 19-Мар-2017 02:27 (спустя 1 месяц 26 дней)

[Q] 

Фильм шикарен. Очень понравился.
[Профиль]  [ЛС] 
Показать сообщения:    
Ответить на тему

Текущее время: Сегодня 09:16

Часовой пояс: GMT + 4



Вы не можете начинать темы
Вы не можете отвечать на сообщения
Вы не можете редактировать свои сообщения
Вы не можете удалять свои сообщения
Вы не можете голосовать в опросах
Вы не можете прикреплять файлы к сообщениям
Вы не можете скачивать файлы

▼ Вниз